Loading...
Error

Скачать Программа защиты принцесс / Princess Protection Program (Эллисон Лидди) [2009, комедия, семейный, HDTVRip] [Dub]+[Sub] торрент без регистрации

 
Статистика раздачи
Размер:  743 MB   |    Скачан:  141 раз
Сидов:  1  [  0 KB/s  ]  
 
Автор Сообщение

Marsianka

[] 

Год выпуска: 2009
Страна: США
Киностудия: Disney Channel
Жанр: комедия, семейный
Продолжительность: 01:29:25

Перевод: Профессиональный (дублированый)
Субтитры: русский, английский
Оригинальная аудиодорожка: нет

Режиссер: Эллисон Лидди / Allison Liddi

В ролях: Селена Гомез, Деми Ловато, Джэми Чунг, Николас Браун, Молли Хэйгэн, Кевин Шмидт, Дейл Дикки, Саманта Дроук, Роберт Адамсон, Джонни Рэй...

Описание: Когда крошечную страну захватывает диктатор, молодая «Принцесса» Рози, арестована в соответствии с «Программой защиты принцесс&raquo.
Она сбегает далеко в деревеньку Висконсин, где она должна изучить и обмыслить свою жизнь как нормальный американский подросток.
В процессе приспосабливания к новой жизни, Рози меняется

Источник: HDTVRip-AVC 720p
Качество видео: HDTVRip
Формат видео: AVI

Видео: 688x384, 23.976 fps, XviD ~ 1041 kbps avg, 0.164 bit/pixel
Аудио: Русский, 48 kHz, MPEG Layer 3, 2 ch, 128.00 kbps Constant
Формат субтитров: SoftSub (srt)

Общее
Полное имя : Princess.Protection.Program.2009.HDTVRip 745.avi
Формат : AVI
Формат/Информация : Audio Video Interleave
Размер файла : 743 Мбайт
Продолжительность : 1 ч. 28 м.
Общий поток : 1178 Кбит/сек
Программа кодирования : VirtualDubModRus 1.5.10.2 (build 2542/release)
Библиотека кодирования : VirtualDubMod build 2542/release

Видео
Идентификатор : 0
Формат : MPEG-4 Visual
Профиль формата : Advanced Simple@L5
Параметр BVOP формата : 1
Параметр QPel формата : Нет
Параметр GMC формата : Без точки перехода
Параметр матрицы формата : Выборочная
Идентификатор кодека : XVID
Идентификатор кодека/Подсказка : XviD
Продолжительность : 1 ч. 28 м.
Битрейт : 1041 Кбит/сек
Ширина : 688 пикс.
Высота : 384 пикс.
Соотношение сторон : 16:9
Частота кадров : 23,976 кадр/сек
Цветовое пространство : YUV
Подвыборка цветности : 4:2:0
Битовая глубина : 8 бит
Тип развёртки : Прогрессивная
Метод сжатия : С потерями
Бит/(Пиксели*Кадры) : 0.164
Размер потока : 657 Мбайт (88%)
Библиотека кодирования : XviD 1.2.1 (UTC 2008-12-04)

Аудио
Идентификатор : 1
Формат : MPEG Audio
Версия формата : Version 1
Профиль формата : Layer 3
Режим : Joint stereo
Расширение режима : MS Stereo
Идентификатор кодека : 55
Идентификатор кодека/Подсказка : MP3
Продолжительность : 1 ч. 28 м.
Вид битрейта : Постоянный
Битрейт : 128 Кбит/сек
Каналы : 2 канала
Частота : 48,0 КГц
Метод сжатия : С потерями
Размер потока : 80,8 Мбайт (11%)
Выравнивание : Соединение по промежуткам
Продолжительность промежутка : 42 мс. (1,00 видеокадр)
Время предзагрузки промежутка : 504 ms



Скачать Программа.защиты.принцесс.Princess.Protection.Program.(Эллисон.Лидди).[2009.комедия.семейный.HDTVRip].[Dub]+[Sub].torrent без регистрации
Золото ЗОЛОТАЯ РАЗДАЧА! СКАЧАННОЕ НЕ ЗАСЧИТЫВАЕТСЯ! Золото
Дата: Зарегистрирован   [ Тип: внутренний ] Как тут cкачать?
MAGNET ссылка
MAGNET ссылка


Скачать .torrent

15 KB

Статус: проверено DHT
Скачан: торрент - 141 раз, раздача полностью - 98 раз
Размер: 743 MB
Оценка:  5 (Голосов: 1)
Поблагодарили: 3
Поделиться ссылкой на эту раздачу с друзьями:
В контактеFacebookОдноклассникиTwitterLivejournalМой МирLiveinternet
 

 
Показать сообщения:    


Вы не можете начинать темы
Вы не можете отвечать на сообщения
Вы не можете редактировать свои сообщения
Вы не можете удалять свои сообщения
Вы не можете голосовать в опросах
Вы не можете прикреплять файлы к сообщениям
Вы можете скачивать файлы