Loading...
Error

Скачать Гении / Lightbulb (Джефф Болсмейер) [2009, драма, мелодрама, комедия, BDRip-AVC] [MVO] торрент без регистрации

 
Статистика раздачи
Размер:  1,37 GB   |    Скачан:  135 раз

Полного источника не было: 23 минуты

 
Автор Сообщение

Marsianka

[] 

Гении / Lightbulb (2009) BDRip-AVC

Информация о фильме
Название: Гении
Оригинальное название: Lightbulb
Год выхода: 2009
Жанр: драма, мелодрама, комедия
Режиссер: Джефф Болсмейер
В ролях: Даллас Робертс, Джереми Реннер, Айелет Зурер, Маргерит Моро, Аманда Энка, Ричард Кайнд, Эдди Джемисон, Джудит Скотт, Дебби Розенталь, Майкл Каган

О фильме:
История двух друзей мелкого изобретателя и жуликоватого продавца, одна из идей которых в конце концов получает всемирное признание и помогает им выбиться из грязи в князи.



Страна: США
Продолжительность: 01:30:46
Перевод: Профессиональное (многоголосый закадровый) [R5]

Файл
Кодек: h.264
Качество: BDRip-AVC
Видео: 688x384 (16:9), 23.976 fps, 1967 kbps, 0.311 bit/pixel
Звук: 48 kHz, AC3, 2/0 (L,R) ch, 192.00 kbps

Общее
Уникальный идентификатор : 233249780681448051112724286023340382008 (0xAF7A461218738F51AF40B5357E9BD738)
Полное имя : D:Lightbulb.2009.BDRip-AVC.mkv
Формат : Matroska
Версия формата : Version 2
Размер файла : 1,37 Гбайт
Продолжительность : 1 ч. 30 м.
Общий поток : 2156 Кбит/сек
Название фильма : Гении / Lightbulb (2009) BDRip-AVC rip by Rulya74
Дата кодирования : UTC 2012-09-02 05:14:18
Программа кодирования : mkvmerge v5.7.0 ('The Whirlwind') built on Jul 8 2012 20:08:51
Библиотека кодирования : libebml v1.2.3 + libmatroska v1.3.0

Видео
Идентификатор : 1
Формат : AVC
Формат/Информация : Advanced Video Codec
Профиль формата : High@L4.1
Параметр CABAC формата : Да
Параметр ReFrames формата : 9 кадров
Идентификатор кодека : V_MPEG4/ISO/AVC
Продолжительность : 1 ч. 30 м.
Битрейт : 1967 Кбит/сек
Ширина : 688 пикселей
Высота : 384 пикселя
Соотношение сторон : 16:9
Частота кадров : 23,976 кадра/сек
Цветовое пространство : YUV
Субдискретизация насыщенности : 4:2:0
Битовая глубина : 8 бит
Тип развёртки : Прогрессивная
Бит/(Пиксели*Кадры) : 0.311
Размер потока : 1,22 Гбайт (89%)
Библиотека кодирования : x264 core 125 r2208 d9d2288
Настройки программы : cabac=1 / ref=9 / deblock=1:-1:-1 / analyse=0x3:0x133 / me=umh / subme=10 / psy=1 / psy_rd=1.00:0.04 / mixed_ref=1 / me_range=32 / chroma_me=1 / trellis=2 / 8x8dct=1 / cqm=0 / deadzone=21,11 / fast_pskip=0 / chroma_qp_offset=-3 / threads=16 / lookahead_threads=2 / sliced_threads=0 / nr=0 / decimate=1 / interlaced=0 / bluray_compat=0 / constrained_intra=0 / bframes=16 / b_pyramid=2 / b_adapt=2 / b_bias=0 / direct=3 / weightb=1 / open_gop=0 / weightp=2 / keyint=240 / keyint_min=22 / scenecut=40 / intra_refresh=0 / rc=2pass / mbtree=0 / bitrate=1967 / ratetol=1.0 / qcomp=0.60 / qpmin=10 / qpmax=51 / qpstep=4 / cplxblur=20.0 / qblur=0.5 / ip_ratio=1.40 / pb_ratio=1.30 / aq=1:1.00
Default : Да
Forced : Нет

Аудио
Идентификатор : 2
Формат : AC-3
Формат/Информация : Audio Coding 3
Расширение режима : CM (complete main)
Идентификатор кодека : A_AC3
Продолжительность : 1 ч. 30 м.
Вид битрейта : Постоянный
Битрейт : 192 Кбит/сек
Каналы : 2 канала
Расположение каналов : Front: L R
Частота : 48,0 КГц
Битовая глубина : 16 бит
Метод сжатия : С потерями
Размер потока : 125 Мбайт (9%)
Заголовок : Многоголосый закадровый [R5]
Язык : Russian
Default : Да
Forced : Нет



Скачать Гении.Lightbulb.(Джефф.Болсмейер).[2009.драма.мелодрама.комедия.BDRip-AVC].[MVO].torrent без регистрации
Золото ЗОЛОТАЯ РАЗДАЧА! СКАЧАННОЕ НЕ ЗАСЧИТЫВАЕТСЯ! Золото
Дата: Зарегистрирован   [ Тип: внутренний ] Как тут cкачать?
MAGNET ссылка
MAGNET ссылка


Скачать .torrent

14 KB

Статус: проверено DHT
Скачан: торрент - 135 раз, раздача полностью - 23 раз
Размер: 1,37 GB
Оценка:  - (Голосов: 0)
Поблагодарили: 1
Поделиться ссылкой на эту раздачу с друзьями:
В контактеFacebookОдноклассникиTwitterLivejournalМой МирLiveinternet
 

 
Показать сообщения:    


Вы не можете начинать темы
Вы не можете отвечать на сообщения
Вы не можете редактировать свои сообщения
Вы не можете удалять свои сообщения
Вы не можете голосовать в опросах
Вы не можете прикреплять файлы к сообщениям
Вы можете скачивать файлы