Loading...
Error

Скачать Агитбригада "Бей врага!" (Виталий Мельников) [2007, исторический, драма, комедия, DVDRip] торрент без регистрации

 
Статистика раздачи
Размер:  2,12 GB   |    Скачан:  118 раз

Полного источника не было: 23 минуты

 
Автор Сообщение

МихаНЕзатор

[] 



Жанр: трагикомедия
Год выпуска: 2007
Режиссёр: Виталий Мельников
В ролях: Виктор Сухоруков, Наталья Ткаченко, Кирилл Пирогов, Анна Данилова, Никита Лейтланд, Алексей Девотченко, Людмила Зайцева, Георгий Пицхелаури, Оксана Мысина, Владимир Сугаров, Екатерина Порубель, Татьяна Захарова, Владимир Баранов, Сергей Жукович, Екатерина Морачевская, Нина Антонова, Дмитрий Быковский, Наталья Иохвидова, Мария Лаврова, Диана Шишляева, Надежда Рязанцева, Татьяна Бурякова, Ирина Комарова, Евгений Артемьев, Анатолий Хропов, Василий Лаврик, Владимир Ермилов, Шерхан Абилов, Дмитрий Быковский-Ромашов, Александр Рублёв

Описание:
В глухой сибирской тайге по берегам рек в годы Великой Отечественной войны возникали поселки "спецпереселенцев". Это было подлинное смешение языков, культур, обычаев - раскулаченные украинцы, высланные калмыки во главе с Верховным Советом, поволжские немцы настоящий Советский Союз в миниатюре. Члены этого разноязыкого племени жили по своим законам, у каждого из них были свои проблемы, радости и горести. И со всеми предстоит встретиться агитбригаде "Бей врага!" под командованием контуженого милиционера Никанора Калинкина. Бригада плывёт на вёслах вниз по Оби и Иртышу, причаливая, давая концерты, показывая кино и исполняя антифашистские скетчи. Задача бригады, с точки зрения Калинкина, "ненависть к врагу возбудить, а всякие шуры-муры отставить"...



Выпущено: Россия
Продолжительность: 02:03:27
Озвучивание: Оригинал

Качество видео: DVDRip
Формат видео: AVI
Видео: 704x384 (1.83:1), 25 fps, XviD 1.2.1, 1995 kbps avg, 0.30 bit/pixel
Аудио: 48 kHz, AC3 Dolby Digital, 3/2 (L,C,R,l,r) + LFE ch, 448.00 kbps avg
По мотивам книги Виталия Мельникова "Жизнь, кино".
Сценарий: Виталий Мельников
Оператор: Сергей Астахов
Композитор: Сергей Баневич
Художник: Владимир Дятленко
Награды: гран-при XV МКФ российского кино в Онфлере (Франция, 2007); "Лучший режиссер" (В.Мельников), "Лучшая женская роль второго плана" (А.Данилова) на МКФ фильмов стран СНГ и Балтии "Листопад" (Минск, 2007); "Лучший сценарий" (В.Мельников) на КФ "Амурская осень" (Благовещенск, 2007); диплом "За оригинальный подход к теме Великой Отечественной войны" на Московском фестивале военно-патриотического фильма "Волоколамский рубеж" им.Сергея Бондарчука (2007); приз "За самую народную комедию" XVIII КФ "Улыбнись, Россия!" (Астрахань, 2007).

Полное имя : F:AgitbrigadaAgitbrigada ``Bey vraga!``.avi
Формат : AVI
Формат/Информация : Audio Video Interleave
Профиль формата : OpenDML
Размер файла : 2,12 Гбайт
Продолжительность : 2 ч. 3 м.
Общий поток : 2455 Кбит/сек
Программа кодирования : VirtualDubMod 1.5.10.3 (build 2550/release)
Библиотека кодирования : VirtualDubMod build 2550/release

Видео
Идентификатор : 0
Формат : MPEG-4 Visual
Профиль формата : Advanced Simple@L5
Параметр BVOP формата : 1
Параметр QPel формата : Нет
Параметр GMC формата : Без точки перехода
Параметр матрицы формата : Выборочная
Режим смешивания : Сжатый битовый поток
Идентификатор кодека : XVID
Идентификатор кодека/Подсказка : XviD
Продолжительность : 2 ч. 3 м.
Битрейт : 1995 Кбит/сек
Ширина : 704 пикселя
Высота : 384 пикселя
Соотношение сторон : 16:9
Частота кадров : 25,000 кадров/сек
Цветовое пространство : YUV
Субдискретизация насыщенности : 4:2:0
Битовая глубина : 8 бит
Тип развёртки : Прогрессивная
Метод сжатия : С потерями
Бит/(Пиксели*Кадры) : 0.295
Размер потока : 1,72 Гбайт (81%)
Библиотека кодирования : XviD 1.2.1 (UTC 2008-12-04)

Аудио
Идентификатор : 1
Формат : AC-3
Формат/Информация : Audio Coding 3
Расширение режима : CM (complete main)
Идентификатор кодека : 2000
Продолжительность : 2 ч. 3 м.
Вид битрейта : Постоянный
Битрейт : 448 Кбит/сек
Каналы : 6 каналов
Расположение каналов : Front: L C R, Side: L R, LFE
Частота : 48,0 КГц
Битовая глубина : 16 бит
Метод сжатия : С потерями
Размер потока : 396 Мбайт (18%)
Выравнивание : Разделение по промежуткам
Продолжительность промежутка : 40 мс. (1,00 видеокадр)
Время предзагрузки промежутка : 500 мс.



Скачать Агитбригада."Бей.врага!".(Виталий.Мельников).[2007.исторический.драма.комедия.DVDRip].torrent без регистрации
Золото ЗОЛОТАЯ РАЗДАЧА! СКАЧАННОЕ НЕ ЗАСЧИТЫВАЕТСЯ! Золото
Дата: Зарегистрирован   [ Тип: внутренний ] Как тут cкачать?
MAGNET ссылка
MAGNET ссылка


Скачать .torrent

11 KB

Статус: проверено DHT
Скачан: торрент - 118 раз, раздача полностью - 11 раз
Размер: 2,12 GB
Оценка:  - (Голосов: 0)
Поблагодарили: 0
Поделиться ссылкой на эту раздачу с друзьями:
В контактеFacebookОдноклассникиTwitterLivejournalМой МирLiveinternet
 

 
Показать сообщения:    


Вы не можете начинать темы
Вы не можете отвечать на сообщения
Вы не можете редактировать свои сообщения
Вы не можете удалять свои сообщения
Вы не можете голосовать в опросах
Вы не можете прикреплять файлы к сообщениям
Вы можете скачивать файлы