Loading...
Error

Скачать Нежное милосердие / Tender Mercies (Брюс Бирсфорд) [1983, драма, DVDRip] [MVO] торрент без регистрации

 
Статистика раздачи
Размер:  745 MB   |    Скачан:  127 раз

Полного источника не было: 23 минуты

 
Автор Сообщение

deniska1975

[] 

Нежное милосердие / Tender Mercies

Название: Нежное милосердие
Оригинальное название: Tender Mercies
Страна: США
Жанр: драма
Год выпуска: 1983
Продолжительность: 01:32:01
Перевод: Профессиональный (многоголосый закадровый)
Cубтитры: нет

Режиссер: Брюс Бирсфорд / Bruce Beresford

В ролях: Роберт Дювалл, Тесс Харпер, Бетти Бакли, Уилфорд Бримли, Эллен Баркин, Аллан Хаббард, Ленни фон Долен, Пол Глисон, Майкл Крэбтри, Норман Беннетт

Описание: Жизнь певца кантри не удалась. Каждый день одно и то же, никаких перспектив, и радость приносит только общение с рюмочкой, которая с каждым днем становится все милее и милее и, наконец, оказывается единственной верной подружкой. И только нежное милосердие молодой вдовы и ее сынишки заставило его однажды взглянуть на мир трезвыми глазами и пробудило стремление к нормальной жизни, которая, оказывается, существует, просто он из нее выпал…



Качество видео: DVDRip
Формат видео: AVI
Видео: 656x368 (1.78:1), 23.976 fps, XviD build 47 ~994 kbps avg, 0.17 bit/pixel
Аудио: 48 kHz, MPEG Layer 3, 2 ch, ~128.00 kbps avg
Общее
Полное имя : D:\Фильмы\Tender.Mercies.1983.dvdrip_[745]_[teko].avi
Формат : AVI
Формат/Информация : Audio Video Interleave
Размер файла : 745 Мбайт
Продолжительность : 1 ч. 32 м.
Общий поток : 1132 Кбит/сек
Программа кодирования : VirtualDubMod 1.5.10.2 (build 2540/release)
Библиотека кодирования : VirtualDubMod build 2540/release

Видео
Идентификатор : 0
Формат : MPEG-4 Visual
Профиль формата : Advanced Simple@L5
Параметр BVOP формата : 1
Параметр QPel формата : Нет
Параметр GMC формата : Без точки перехода
Параметр матрицы формата : Default (MPEG)
Идентификатор кодека : XVID
Идентификатор кодека/Подсказка : XviD
Продолжительность : 1 ч. 32 м.
Битрейт : 994 Кбит/сек
Ширина : 656 пикселей
Высота : 368 пикселей
Соотношение сторон : 16:9
Частота кадров : 23,976 кадра/сек
Цветовое пространство : YUV
Субдискретизация насыщенности : 4:2:0
Битовая глубина : 8 бит
Тип развёртки : Прогрессивная
Метод сжатия : С потерями
Бит/(Пиксели*Кадры) : 0.172
Размер потока : 654 Мбайт (88%)
Библиотека кодирования : XviD 1.2.0.dev47 (UTC 2006-11-01)

Аудио
Идентификатор : 1
Формат : MPEG Audio
Версия формата : Version 1
Профиль формата : Layer 3
Идентификатор кодека : 55
Идентификатор кодека/Подсказка : MP3
Продолжительность : 1 ч. 32 м.
Вид битрейта : Постоянный
Битрейт : 128 Кбит/сек
Каналы : 2 канала
Частота : 48,0 КГц
Метод сжатия : С потерями
Размер потока : 84,3 Мбайт (11%)
Выравнивание : Соединение по промежуткам
Продолжительность промежутка : 42 мс. (1,00 видеокадр)
Время предзагрузки промежутка : 504 мс.
Библиотека кодирования : LAME3.98r
Настройки программы : -m s -V 4 -q 2 -lowpass 17 -b 128



Скачать Нежное.милосердие.Tender.Mercies.(Брюс.Бирсфорд).[1983.драма.DVDRip].[MVO].torrent без регистрации
Золото ЗОЛОТАЯ РАЗДАЧА! СКАЧАННОЕ НЕ ЗАСЧИТЫВАЕТСЯ! Золото
Дата: Зарегистрирован   [ Тип: внутренний ] Как тут cкачать?
MAGNET ссылка
MAGNET ссылка


Скачать .torrent

15 KB

Статус: проверено DHT
Скачан: торрент - 127 раз, раздача полностью - 5 раз
Размер: 745 MB
Оценка:  5 (Голосов: 1)
Поблагодарили: 2
Поделиться ссылкой на эту раздачу с друзьями:
В контактеFacebookОдноклассникиTwitterLivejournalМой МирLiveinternet
 

 
Показать сообщения:    


Вы не можете начинать темы
Вы не можете отвечать на сообщения
Вы не можете редактировать свои сообщения
Вы не можете удалять свои сообщения
Вы не можете голосовать в опросах
Вы не можете прикреплять файлы к сообщениям
Вы можете скачивать файлы