Loading...
Error

Скачать В поисках чудес / Looking for Miracles (Кевин Салливан) [1989, канада, драма, семейный, DVDRip] [VO (Антон Алексеев)] торрент без регистрации

 
Статистика раздачи
Размер:  1,37 GB   |    Скачан:  131 раз
Сидов:  1  [  0 KB/s  ]  
 
Автор Сообщение

deniska1975

[] 

В поисках чудес / Looking for Miracles


Русское название: В поисках чудес
Оригинальное название: Looking for Miracles
Страна: Канада
Жанр: Драма, Семейный
Год выпуска: 1989
Продолжительность: 01:43:23
Перевод: Любительский (одноголосый закадровый) Антон Алексеев
Cубтитры: нет

Режиссер: Кевин Салливан / Kevin Sullivan

В ролях: Грег Споттисвуд, Захари Беннетт, Джо Флаэрти, Патриция Гейдж, Патриция Филлипс, Ной Годфри, Пол Хаддад, Дин Хэмилтон, Хью Томпсон, Эрик Финк

Описание: История 16-летнего Райана Делани, стремящегося сделать жизнь лучше для себя, младшего брата и матери-одиночки. Пройдя по конкурсу в университет, Райан теперь должен найти деньги на обучение. Несмотря на свой юный возраст, отсутствие опыта и страх перед водой, он устраивается старшим инструктором в летний лагерь. Туда он пристраивает и своего неугомонного младшего братца.



Дата мировой премьеры: 3 июня 1989

Качество видео: DVDRip
Формат видео: AVI

Видео: 720x540 (1.33:1), 29.970 fps, XviD build 46 ~1499 kbps avg, 0.13 bit/pixel
Аудио 1: 44.100 kHz, MPEG Layer 3, 2 ch, ~192.00 kbps avg (русский)
Аудио 2: 44.100 kHz, MPEG Layer 3, 2 ch, ~192.00 kbps avg (английский)

General
Complete name : C:\Users\1\Desktop\Looking.For.Miracles.avi
Format : AVI
Format/Info : Audio Video Interleave
File size : 1.37 GiB
Duration : 1h 43mn
Overall bit rate : 1 902 Kbps
Writing application : VirtualDubMod 1.5.10.2 (build 2540/release)
Writing library : VirtualDubMod build 2540/release

Video
ID : 0
Format : MPEG-4 Visual
Format profile : Advanced Simple@L5
Format settings, BVOP : No
Format settings, QPel : No
Format settings, GMC : No warppoints
Format settings, Matrix : Default (MPEG)
Codec ID : XVID
Codec ID/Hint : XviD
Duration : 1h 43mn
Bit rate : 1 500 Kbps
Width : 720 pixels
Height : 540 pixels
Display aspect ratio : 4:3
Frame rate : 29.970 fps
Color space : YUV
Chroma subsampling : 4:2:0
Bit depth : 8 bits
Scan type : Progressive
Compression mode : Lossy
Bits/(Pixel*Frame) : 0.129
Stream size : 1.08 GiB (79%)
Writing library : XviD 1.1.2 (UTC 2006-11-01)

Audio #1
ID : 1
Format : MPEG Audio
Format version : Version 1
Format profile : Layer 3
Mode : Joint stereo
Mode extension : MS Stereo
Codec ID : 55
Codec ID/Hint : MP3
Duration : 1h 43mn
Bit rate mode : Constant
Bit rate : 192 Kbps
Channel(s) : 2 channels
Sampling rate : 44.1 KHz
Compression mode : Lossy
Stream size : 142 MiB (10%)
Alignment : Split accross interleaves
Interleave, duration : 33 ms (1.00 video frame)
Interleave, preload duration : 500 ms

Audio #2
ID : 2
Format : MPEG Audio
Format version : Version 1
Format profile : Layer 3
Codec ID : 55
Codec ID/Hint : MP3
Duration : 1h 43mn
Bit rate mode : Constant
Bit rate : 192 Kbps
Channel(s) : 2 channels
Sampling rate : 44.1 KHz
Compression mode : Lossy
Stream size : 142 MiB (10%)
Alignment : Split accross interleaves
Interleave, duration : 33 ms (1.00 video frame)
Interleave, preload duration : 500 ms



Скачать В.поисках.чудес.Looking.for.Miracles.(Кевин.Салливан).[1989.канада.драма.семейный.DVDRip].[VO.(Антон.Алексеев)].torrent без регистрации
Золото ЗОЛОТАЯ РАЗДАЧА! СКАЧАННОЕ НЕ ЗАСЧИТЫВАЕТСЯ! Золото
Дата: Зарегистрирован   [ Тип: внутренний ] Как тут cкачать?
MAGNET ссылка
MAGNET ссылка


Скачать .torrent

14 KB

Статус: проверено DHT
Скачан: торрент - 131 раз, раздача полностью - 22 раз
Размер: 1,37 GB
Оценка:  5 (Голосов: 1)
Поблагодарили: 2
Поделиться ссылкой на эту раздачу с друзьями:
В контактеFacebookОдноклассникиTwitterLivejournalМой МирLiveinternet
 

 
Показать сообщения:    


Вы не можете начинать темы
Вы не можете отвечать на сообщения
Вы не можете редактировать свои сообщения
Вы не можете удалять свои сообщения
Вы не можете голосовать в опросах
Вы не можете прикреплять файлы к сообщениям
Вы можете скачивать файлы