Loading...
Error

Скачать Шекспиру и не снилось (Алексей Зернов) [2007, комедия, DVDRip] торрент без регистрации

 
Статистика раздачи
Размер:  749 MB   |    Скачан:  117 раз
Сидов:  1  [  0 KB/s  ]  
 
Автор Сообщение

МихаНЕзатор

[] 

Год выпуска: 2007
Страна: Россия
Студия: Пеликан, Пеликан-фильм

Жанр: комедия
Продолжительность: 01:44:29

Перевод: Не требуется
Субтитры: нет

Режиссер: Алексей Зернов

В ролях: Анастасия Заворотнюк, Сергей Жигунов, Игорь Харламов, Татьяна Кравченко, Ольга Прокофьева, Борис Смолкин, Юрий Стоянов...

Описание: В уездном городке уже давно ждут труппу известных актеров. Однако приехавшие знаменитости ведут себя странно и уже в ходе подготовки спектакля у директора театра закрадываются сомнения в «подлинности» приехавших. В стане «актеров» свои неприятности единственная «Прима», ради которой на спектакль приезжает губернатор города, неожиданно влюбившись, сбегает с юным гусаром в табор к цыганам. Вечером спектакль, билеты проданы, а играть некому. Гастролеры срочно вынуждены искать «актрисе» замену...



Исходник: DVD9
Тип релиза: DVDRip
Контейнер: AVI

Видео: 656x352 (1,864:1), 25 fps, XviD ~ 864 kbps avg, 0.150 bit/pixel
Аудио: 48 kHz, MP3, 2 ch, 128.00 kbps Русский

Общее
Полное имя : Shekspiru.i.ne.snilos.2007Shekspiru.i.ne.snilos.2007.DVDRip.745.avi
Формат : AVI
Формат/Информация : Audio Video Interleave
Размер файла : 749 Мбайт
Продолжительность : 1 ч. 44 м.
Общий поток : 1002 Кбит/сек
Программа кодирования : VirtualDubMod 1.5.10.3 | www.virtualdub-fr.org || (build 2550/release)
Библиотека кодирования : VirtualDubMod build 2550/release

Видео
Идентификатор : 0
Формат : MPEG-4 Visual
Профиль формата : Advanced Simple@L5
Параметр BVOP формата : 1
Параметр QPel формата : Нет
Параметр GMC формата : Без точки перехода
Параметр матрицы формата : Выборочная
Идентификатор кодека : XVID
Идентификатор кодека/Подсказка : XviD
Продолжительность : 1 ч. 44 м.
Битрейт : 864 Кбит/сек
Ширина : 656 пикселей
Высота : 352 пикселя
Соотношение сторон : 1,864
Частота кадров : 25,000 кадров/сек
Цветовое пространство : YUV
Субдискретизация насыщенности : 4:2:0
Битовая глубина : 8 бит
Тип развёртки : Прогрессивная
Метод сжатия : С потерями
Бит/(Пиксели*Кадры) : 0.150
Размер потока : 646 Мбайт (86%)
Библиотека кодирования : XviD 1.2.1 (UTC 2008-12-04)

Аудио
Идентификатор : 1
Формат : MPEG Audio
Версия формата : Version 1
Профиль формата : Layer 3
Идентификатор кодека : 55
Идентификатор кодека/Подсказка : MP3
Продолжительность : 1 ч. 44 м.
Вид битрейта : Постоянный
Битрейт : 128 Кбит/сек
Каналы : 2 канала
Частота : 48,0 КГц
Метод сжатия : С потерями
Размер потока : 95,7 Мбайт (13%)
Выравнивание : Соединение по промежуткам
Продолжительность промежутка : 40 мс. (1,00 видеокадр)
Время предзагрузки промежутка : 504 мс.
Библиотека кодирования : LAME3.99.1



Скачать Шекспиру.и.не.снилось.(Алексей.Зернов).[2007.комедия.DVDRip].torrent без регистрации
Золото ЗОЛОТАЯ РАЗДАЧА! СКАЧАННОЕ НЕ ЗАСЧИТЫВАЕТСЯ! Золото
Дата: Зарегистрирован   [ Тип: внутренний ] Как тут cкачать?
MAGNET ссылка
MAGNET ссылка


Скачать .torrent

15 KB

Статус: проверено DHT
Скачан: торрент - 117 раз, раздача полностью - 8 раз
Размер: 749 MB
Оценка:  - (Голосов: 0)
Поблагодарили: 0
Поделиться ссылкой на эту раздачу с друзьями:
В контактеFacebookОдноклассникиTwitterLivejournalМой МирLiveinternet
 

 
Показать сообщения:    


Вы не можете начинать темы
Вы не можете отвечать на сообщения
Вы не можете редактировать свои сообщения
Вы не можете удалять свои сообщения
Вы не можете голосовать в опросах
Вы не можете прикреплять файлы к сообщениям
Вы можете скачивать файлы