Loading...
Error

Скачать Оправданная жестокость / A History of Violence (Дэвид Кроненберг) [2005, триллер, драма, криминал, BDRip] [Dub]+[AVO]+[Оригинал] торрент без регистрации

 
Статистика раздачи
Размер:  2,06 GB   |    Скачан:  130 раз
Сидов:  1  [  0 KB/s  ]  
 
Автор Сообщение

Marsianka

[] 

Оправданная жестокость / A History of Violence (2005) BDRip

Информация о фильме
Название: Оправданная жестокость
Оригинальное название: A History of Violence
Год выхода: 2005
Жанр: триллер, драма, криминал
Режиссер: Дэвид Кроненберг
В ролях: Вигго Мортенсен, Мария Белло, Эд Харрис, Уильям Хёрт, Эштон Холмс, Питер МакНейл, Стивен МакХэтти, Грег Брайк, Кайл Шмид, Самела Кэй ...

О фильме:
Двое бандитов путешествуют по американской провинции, оставляя после себя многочисленные трупы. Однажды они оказываются в тихом городке Миллбрук, штат Индиана. В этом городе живёт Том Столл, уважаемый всеми владелец небольшой закусочной, и его семья жена Иди и двое детей, Джек и Сара. При попытке вооружённого ограбления своей закусочной Том Столл убивает бандитов и становится местным героем, о его подвиге упоённо рассказывает телевидение. На следующий день в Миллбруке появляются загадочные люди, которые почему-то называют Тома именем Джоуи и расспрашивают его о Филадельфии.



Страна: США, Германия
Студия: Студия-изготовитель, если известна
Продолжительность: 01:35:41
Перевод: Дубляж + Авторский, одноголосый закадровый (А. Гаврилов) + Оригинал (Английский)

Файл
Кодек: XviD
Качество: BDRip
Видео: 720x384 (1.88:1), 23.976 fps, 1927 kbps, 0.291 bit/pixel
Аудио#1: 48 kHz, AC3 5.1, 384.00 kbps (Дубляж)
Аудио#2: 48 kHz, AC3 5.1, 384.00 kbps (А. Гаврилов)
Аудио#3: 48 kHz, AC3 5.1, 384.00 kbps (Английский)

Общее
Полное имя : D:A History of Violence.2005.BDRip.avi
Формат : AVI
Формат/Информация : Audio Video Interleave
Профиль формата : OpenDML
Настройки формата : rec
Размер файла : 2,06 Гбайт
Продолжительность : 1 ч. 35 м.
Общий поток : 3088 Кбит/сек
Название фильма : Оправданная жестокость / A History of Violence (2005) BDRip
Программа кодирования : AVI-Mux GUI 1.17.8.3, Feb 16 201019:42:50

Видео
Идентификатор : 0
Формат : MPEG-4 Visual
Профиль формата : Advanced Simple@L5
Параметр BVOP формата : 1
Параметр QPel формата : Нет
Параметр GMC формата : Без точки перехода
Параметр матрицы формата : Default (MPEG)
Режим смешивания : Сжатый битовый поток
Идентификатор кодека : XVID
Идентификатор кодека/Подсказка : XviD
Продолжительность : 1 ч. 35 м.
Битрейт : 1927 Кбит/сек
Ширина : 720 пикселей
Высота : 384 пикселя
Соотношение сторон : 1,875
Частота кадров : 23,976 кадра/сек
Цветовое пространство : YUV
Субдискретизация насыщенности : 4:2:0
Битовая глубина : 8 бит
Тип развёртки : Прогрессивная
Метод сжатия : С потерями
Бит/(Пиксели*Кадры) : 0.291
Размер потока : 1,29 Гбайт (62%)
Библиотека кодирования : XviD 1.2.1 (UTC 2008-12-04)

Аудио #1
Идентификатор : 1
Формат : AC-3
Формат/Информация : Audio Coding 3
Расширение режима : CM (complete main)
Идентификатор кодека : 2000
Продолжительность : 1 ч. 35 м.
Вид битрейта : Постоянный
Битрейт : 384 Кбит/сек
Каналы : 6 каналов
Расположение каналов : Front: L C R, Side: L R, LFE
Частота : 48,0 КГц
Битовая глубина : 16 бит
Метод сжатия : С потерями
Размер потока : 263 Мбайт (12%)
Выравнивание : Соединение по промежуткам
Продолжительность промежутка : 64 мс. (1,53 видеокадра)
Время предзагрузки промежутка : 192 мс.
Заголовок : Дубляж

Аудио #2
Идентификатор : 2
Формат : AC-3
Формат/Информация : Audio Coding 3
Расширение режима : CM (complete main)
Идентификатор кодека : 2000
Продолжительность : 1 ч. 35 м.
Вид битрейта : Постоянный
Битрейт : 384 Кбит/сек
Каналы : 6 каналов
Расположение каналов : Front: L C R, Side: L R, LFE
Частота : 48,0 КГц
Битовая глубина : 16 бит
Метод сжатия : С потерями
Размер потока : 263 Мбайт (12%)
Выравнивание : Соединение по промежуткам
Продолжительность промежутка : 64 мс. (1,53 видеокадра)
Время предзагрузки промежутка : 192 мс.
Заголовок : Авторский (А. Гаврилов)

Аудио #3
Идентификатор : 3
Формат : AC-3
Формат/Информация : Audio Coding 3
Расширение режима : CM (complete main)
Идентификатор кодека : 2000
Продолжительность : 1 ч. 35 м.
Вид битрейта : Постоянный
Битрейт : 384 Кбит/сек
Каналы : 6 каналов
Расположение каналов : Front: L C R, Side: L R, LFE
Частота : 48,0 КГц
Битовая глубина : 16 бит
Метод сжатия : С потерями
Размер потока : 263 Мбайт (12%)
Выравнивание : Соединение по промежуткам
Продолжительность промежутка : 64 мс. (1,53 видеокадра)
Время предзагрузки промежутка : 192 мс.
Заголовок : Оригинал (Английский)



Скачать Оправданная.жестокость.A.History.of.Violence.(Дэвид.Кроненберг).[2005.триллер.драма.криминал.BDRip].[Dub]+[AVO]+[Оригинал].torrent без регистрации
Золото ЗОЛОТАЯ РАЗДАЧА! СКАЧАННОЕ НЕ ЗАСЧИТЫВАЕТСЯ! Золото
Дата: Зарегистрирован   [ Тип: внутренний ] Как тут cкачать?
MAGNET ссылка
MAGNET ссылка


Скачать .torrent

11 KB

Статус: проверено DHT
Скачан: торрент - 130 раз, раздача полностью - 36 раз
Размер: 2,06 GB
Оценка:  5 (Голосов: 1)
Поблагодарили: 3
Поделиться ссылкой на эту раздачу с друзьями:
В контактеFacebookОдноклассникиTwitterLivejournalМой МирLiveinternet
 

 
Показать сообщения:    


Вы не можете начинать темы
Вы не можете отвечать на сообщения
Вы не можете редактировать свои сообщения
Вы не можете удалять свои сообщения
Вы не можете голосовать в опросах
Вы не можете прикреплять файлы к сообщениям
Вы можете скачивать файлы