Loading...
Error

Скачать Красный пояс / Redbelt (Дэвид Мэмет) [2008, боевик, драма, спорт, HDRip] [MVO] торрент без регистрации

 
Статистика раздачи
Размер:  748 MB   |    Скачан:  111 раз
Сидов:  1  [  0 KB/s  ]  
 
Автор Сообщение

МихаНЕзатор

[] 

Информация о фильме
Название: Красный пояс
Оригинальное название: Redbelt
Год выхода: 2008
Жанр: боевик, драма, спорт
Режиссер: Дэвид Мэмет / David Mamet
В ролях: Чиветель Эджиофор, Тим Аллен, Алиси Брага, Эмили Мортимер, Джо Мантенья, Рики Джей, Макс Данн, Хосе Пабло Кантилльо, Родриго Санторо, Сирил Такаяма

О фильме:
Майк Терри работает инструктором по боевым искусствам, занимая свою нишу в кинобизнесе. Его наставничество производит довольно правдоподобный эффект на экране. Но волею судьбы он оказывается втянутым в реальные призовые бои. Несмотря на все его отказы, принимать в них участие, обстоятельства вынуждают его призадуматься и принять вызов, вступая в открытое соревнование. На кону пятьдесят тысяч долларов, благополучие семьи и собственная жизнь.


Страна: США
Студия: Sony Pictures Classics
Продолжительность: 01:39:09
Перевод: Профессиональный (многоголосый закадровый)

Файл
Кодек: XviD / MP3
Качество: HDRip
Видео: XviD, 688 x 288 (2.389 : 1), 23,976 fps, 917 kbsp, 0.193 bits/pixel
Звук: MP3, 48000Hz, 128 kb/s (CBR) , 2 ch (Stereo)
Общее
Формат : AVI
Формат/Информация : Audio Video Interleave
Размер файла : 748 Мбайт
Продолжительность : 1 ч. 39 м.
Общий поток : 1055 Кбит/сек
Программа кодирования : VirtualDubMod 1.5.10.3

Видео
Идентификатор : 0
Формат : MPEG-4 Visual
Профиль формата : Advanced Simple@L5
Параметр BVOP формата : 1
Параметр QPel формата : Нет
Параметр GMC формата : Без точки перехода
Параметр матрицы формата : Выборочная
Идентификатор кодека : XVID
Идентификатор кодека/Подсказка : XviD
Продолжительность : 1 ч. 39 м.
Битрейт : 918 Кбит/сек
Ширина : 688 пикселей
Высота : 288 пикселей
Соотношение сторон : 2,40:1
Частота кадров : 23,976 кадра/сек
Цветовое пространство : YUV
Субдискретизация насыщенности : 4:2:0
Битовая глубина : 8 бит
Тип развёртки : Прогрессивная
Метод сжатия : С потерями
Бит/(Пиксели*Кадры) : 0.193
Размер потока : 651 Мбайт (87%)
Библиотека кодирования : XviD 58

Аудио
Идентификатор : 1
Формат : MPEG Audio
Версия формата : Version 1
Профиль формата : Layer 3
Идентификатор кодека : 55
Идентификатор кодека/Подсказка : MP3
Продолжительность : 1 ч. 39 м.
Вид битрейта : Постоянный
Битрейт : 128 Кбит/сек
Каналы : 2 канала
Частота : 48,0 КГц
Метод сжатия : С потерями
Размер потока : 90,8 Мбайт (12%)
Выравнивание : Соединение по промежуткам
Продолжительность промежутка : 42 мс. (1,00 видеокадр)
Время предзагрузки промежутка : 504 мс.
Библиотека кодирования : LAME3.98r



Скачать Красный.пояс.Redbelt.(Дэвид.Мэмет).[2008.боевик.драма.спорт.HDRip].[MVO].torrent без регистрации
Золото ЗОЛОТАЯ РАЗДАЧА! СКАЧАННОЕ НЕ ЗАСЧИТЫВАЕТСЯ! Золото
Дата: Зарегистрирован   [ Тип: внутренний ] Как тут cкачать?
MAGNET ссылка
MAGNET ссылка


Скачать .torrent

15 KB

Статус: проверено DHT
Скачан: торрент - 111 раз, раздача полностью - 47 раз
Размер: 748 MB
Оценка:  - (Голосов: 0)
Поблагодарили: 0
Поделиться ссылкой на эту раздачу с друзьями:
В контактеFacebookОдноклассникиTwitterLivejournalМой МирLiveinternet
 

 
Показать сообщения:    


Вы не можете начинать темы
Вы не можете отвечать на сообщения
Вы не можете редактировать свои сообщения
Вы не можете удалять свои сообщения
Вы не можете голосовать в опросах
Вы не можете прикреплять файлы к сообщениям
Вы можете скачивать файлы