Loading...
Error

Скачать Побег / La carapate (Жерар Ури) [1978, комедия, криминал, DVDRip] [Dub]+[DVO]+[Sub]+[Оригинал] торрент без регистрации

 
Статистика раздачи
Размер:  1,73 GB   |    Скачан:  118 раз

Полного источника не было: 29 минут

 
Автор Сообщение

Marsianka

[] 

Год выпуска: 1978
Страна
: Франция
Студии: BBC Films, Lip Sync Productions, The Weinstein Company LLC
Жанр: комедия, криминал
Продолжительность: 01:34:50

Перевод 1: Профессиональный (дублированный) [Советский дубляж]
Перевод 2: Профессиональный двухголосый (закадровый) DVD "Союз"
Cубтитры: русский
Оригинальная аудиодорожка: французский

Режиссер: Жерар Ури / Gerard Oury

В ролях: Пьер Ришар / Pierre Richard, Виктор Лану / Victor Lanoux, Жак Франц / Jacques Frantz, Жен-Пьер Дарра / Jean-Pierre Darras, Робер Дальбан / Robert Dalban, Клод Броссе / Claude Brosset, Раймон Бюссьер / Raymond Bussieres, Клэр Ришар / Claire Richard, Бланш Равалео / Blanche Ravaleo, Бернар Гранже / Bernard Granger, Адриен Кайла-Легран / Adrien Cayla-Legrand...

Описание: Адвокат Дюрок (Пьер Ришар) навещает своего клиента в камере смертников. Внезапно начинается массовый бунт, и недотепа бежит вместе с остальными заключенными, спасаясь от пуль полицейских, вместе со своим подзащитным Голаром (Лану), которого полиция считает зачинщиком всех беспорядков. Бесчисленные погони, веселые и пикантные ситуации, общая опасность сближают героев и они становятся друзьями...

Исходник: DVD9
Качество: DVDRip
Формат: AVI

Видео: 672x400 (1.680:1), 25 fps, XVID ~ 1909 kbps avg, 0.284 bit/pixel
Аудио 1: Русский DD 2.0 (256 Kbps) 48.0 KHZ Дублированный
Аудио 2: Русский DD 2.0 (224 Kbps) 48.0 KHZ Двухголосый (закадровый) отдельным файлом
Аудио 2: Французский DD 2.0 (192 Kbps) 48.0 KHZ отдельным файлом
Субтитры: русский
Формат субтитров: SoftSub (srt)

Раздача от:

General
Complete name : Pobeg.1978.D.DVDRip.avi
Format : AVI
Format/Info : Audio Video Interleave
File size : 1.46 GiB
Duration : 1h 35mn
Overall bit rate : 2 175 Kbps
Writing application : VirtualDubMod 1.5.10.3 | www.virtualdub-fr.org || (build 2550/release)
Writing library : VirtualDubMod build 2550/release

Video
ID : 0
Format : MPEG-4 Visual
Format profile : Advanced Simple@L5
Format settings, BVOP : 1
Format settings, QPel : No
Format settings, GMC : No warppoints
Format settings, Matrix : Custom
Codec ID : XVID
Codec ID/Hint : XviD
Duration : 1h 35mn
Bit rate : 1 909 Kbps
Width : 672 pixels
Height : 400 pixels
Display aspect ratio : 1.680
Frame rate : 25.000 fps
Color space : YUV
Chroma subsampling : 4:2:0
Bit depth : 8 bits
Scan type : Progressive
Compression mode : Lossy
Bits/(Pixel*Frame) : 0.284
Stream size : 1.28 GiB (88%)
Writing library : XviD 64

Audio
ID : 1
Format : AC-3
Format/Info : Audio Coding 3
Mode extension : CM (complete main)
Codec ID : 2000
Duration : 1h 35mn
Bit rate mode : Constant
Bit rate : 256 Kbps
Channel(s) : 2 channels
Channel positions : Front: L R
Sampling rate : 48.0 KHz
Bit depth : 16 bits
Compression mode : Lossy
Stream size : 175 MiB (12%)
Alignment : Split accross interleaves
Interleave, duration : 40 ms (1.00 video frame)
Interleave, preload duration : 500 ms



Скачать Побег.La.carapate.(Жерар.Ури).[1978.комедия.криминал.DVDRip].[Dub]+[DVO]+[Sub]+[Оригинал].torrent без регистрации
Золото ЗОЛОТАЯ РАЗДАЧА! СКАЧАННОЕ НЕ ЗАСЧИТЫВАЕТСЯ! Золото
Дата: Зарегистрирован   [ Тип: внутренний ] Как тут cкачать?
MAGNET ссылка
MAGNET ссылка


Скачать .torrent

18 KB

Статус: проверено DHT
Скачан: торрент - 118 раз, раздача полностью - 6 раз
Размер: 1,73 GB
Оценка:  - (Голосов: 0)
Поблагодарили: 0
Поделиться ссылкой на эту раздачу с друзьями:
В контактеFacebookОдноклассникиTwitterLivejournalМой МирLiveinternet
 

 
Показать сообщения:    


Вы не можете начинать темы
Вы не можете отвечать на сообщения
Вы не можете редактировать свои сообщения
Вы не можете удалять свои сообщения
Вы не можете голосовать в опросах
Вы не можете прикреплять файлы к сообщениям
Вы можете скачивать файлы