Loading...
Error

Скачать Багровый цвет снегопада (Владимир Мотыль) [2009, драма, мелодрама, BDRip] торрент без регистрации

 
Статистика раздачи
Размер:  2,19 GB   |    Скачан:  121 раз

Полного источника не было: 24 минуты

 
Автор Сообщение

МихаНЕзатор

[] 

Год выпуска: 2009
Страна: Россия
Студия: Vladimir Motyl Studio

Жанр: драма, мелодрама
Продолжительность: 02:01:26

Перевод: не требуется
Субтитры: нет
Оригинальная аудиодорожка: русский

Режиссер: Владимир Мотыль

Описание: Действие фильма происходит во время Первой мировой войны. Юная киевлянка Ксения Герстель, дочь миллионера-промышленника, остается сиротой ее отец был убит во время беспорядков, а вскоре Ксения узнает, что на фронте погиб ее жених Саша. Отчаявшись, она поступила в «Красный крест» и ушла сестрой милосердия на передовую, где встретила новую любовь генерал-майора Ростислава Баторского, человека, который спас ей жизнь и фактически заменил отца, поселив ее после демобилизации в своей квартире в Петрограде.
Одинокий пятидесятитрехлетний генерал влюбляется в Ксению, окружает ее заботой и вниманием и, в конце концов, они становятся мужем и женой. После бесконечных потерь и разочарований, выпавших на ее долю, Ксения обретает веру в будущее, мечтает о большой счастливой семье, о детях. Но революция 1917 года повергает Россию в пучину кровавого хаоса, и надеждам Ксении не суждено сбыться...


Исходник: Blu-ray 1080p
Качество: BDRip
Формат: AVI

Видео: 720x400 (16:9), 23.976 fps, XviD MPEG-4 ~2015 kbps avg, 0.292 bit/pixel
Аудио: 48 kHz, AC3 Dolby Digital, 3/2 (L,C,R,l,r) + LFE ch, 448 kbps

Общее
Полное имя : Bagrovyi.tsvet.snegopada.2009.O.BDRip_[Youtracker]_by_avproh.avi
Формат : AVI
Формат/Информация : Audio Video Interleave
Профиль формата : OpenDML
Размер файла : 2,19 Гбайт
Продолжительность : 2 ч. 6 м.
Общий поток : 2475 Кбит/сек
Программа кодирования : VirtualDubMod 1.5.10.3 (build 2550/release)
Библиотека кодирования : VirtualDubMod build 2550/release

Видео
Идентификатор : 0
Формат : MPEG-4 Visual
Профиль формата : Advanced Simple@L5
Параметр BVOP формата : 1
Параметр QPel формата : Нет
Параметр GMC формата : Без точки перехода
Параметр матрицы формата : Выборочная
Идентификатор кодека : XVID
Идентификатор кодека/Подсказка : XviD
Продолжительность : 2 ч. 6 м.
Битрейт : 2015 Кбит/сек
Ширина : 720 пикселей
Высота : 400 пикселей
Соотношение сторон : 16:9
Частота кадров : 23,976 кадра/сек
Цветовое пространство : YUV
Субдискретизация насыщенности : 4:2:0
Битовая глубина : 8 бит
Тип развёртки : Прогрессивная
Метод сжатия : С потерями
Бит/(Пиксели*Кадры) : 0.292
Размер потока : 1,78 Гбайт (81%)
Библиотека кодирования : XviD 65

Аудио
Идентификатор : 1
Формат : AC-3
Формат/Информация : Audio Coding 3
Расширение режима : CM (complete main)
Параметр Endianness формата : Big
Идентификатор кодека : 2000
Продолжительность : 2 ч. 6 м.
Вид битрейта : Постоянный
Битрейт : 448 Кбит/сек
Каналы : 6 каналов
Расположение каналов : Front: L C R, Side: L R, LFE
Частота : 48,0 КГц
Битовая глубина : 16 бит
Метод сжатия : С потерями
Размер потока : 406 Мбайт (18%)
Выравнивание : Разделение по промежуткам
Продолжительность промежутка : 42 мс. (1,00 видеокадр)
Время предзагрузки промежутка : 500 мс.



Скачать Багровый.цвет.снегопада.(Владимир.Мотыль).[2009.драма.мелодрама.BDRip].torrent без регистрации
Золото ЗОЛОТАЯ РАЗДАЧА! СКАЧАННОЕ НЕ ЗАСЧИТЫВАЕТСЯ! Золото
Дата: Зарегистрирован   [ Тип: внутренний ] Как тут cкачать?
MAGNET ссылка
MAGNET ссылка


Скачать .torrent

23 KB

Статус: проверено DHT
Скачан: торрент - 121 раз, раздача полностью - 36 раз
Размер: 2,19 GB
Оценка:  4 (Голосов: 1)
Поблагодарили: 1
Поделиться ссылкой на эту раздачу с друзьями:
В контактеFacebookОдноклассникиTwitterLivejournalМой МирLiveinternet
 

 
Показать сообщения:    


Вы не можете начинать темы
Вы не можете отвечать на сообщения
Вы не можете редактировать свои сообщения
Вы не можете удалять свои сообщения
Вы не можете голосовать в опросах
Вы не можете прикреплять файлы к сообщениям
Вы можете скачивать файлы