Loading...
Error

Скачать Цирк Бабочек / The Butterfly Circus (Джошуа Вайгель / Joshua Weigel) [2009, США, Драма, притча, HDRip] [VO] торрент без регистрации

 
Статистика раздачи
Размер:  250 MB   |    Скачан:  263 раза
Сидов:  1  [  0 KB/s  ]  
 
Автор Сообщение

deniska1975

[] 

Цирк Бабочек / The Butterfly Circus

Название на русском : Цирк Бабочек
Оригинальное название: The Butterfly Circus
Страна: США
Жанр: Короткометражный, драма, притча
Год выпуска: 2009
Продолжительность: 00:22:34
Перевод: Любительский одноголосый
Cубтитры: нет

Режиссер: Джошуа Вайгель / Joshua Weigel

В ролях:
Ник Вуйчич (Вилл), Эдуардо Верстигуи (Мендес), Даг Джонс (Отто), Мэтт Аллмен (Джордж), Коннор Розен (Семми), Лекси Перл (Анна), Марк Аттберри (Халей), Кирк Бовилл (Джимми), Боб Йеркс (Поппи), Дион Слидер (Фатхер).

О фильме:
В разгар Великой Депрессии, шоумен и владелец собственного небольшого цирка, гастролирует со своей труппой по разрушенной американской провинции, радуя и поднимая настроение простых людей в это не простое время. Во время своего путешествия, он посещает ярмарочный балаган, где обнаруживает человека без конечностей, которого там эксплуатируют в качестве живого экспоната шоу-уродов.

В результате этот человек становится частью странствующей труппы цирковых артистов. Позднее, с помощью своих новых друзей, он обретает веру в себя, и делает то, о чем раньше не смел даже мечтать…




Качество видео: HDRip
Формат видео: AVI
Видео: 720x288 (2.50:1), 25 fps, XviD MPEG-4 ~1410 kbps avg, 0.27 bit/pixel
Аудио: 48 kHz, MPEG Layer 3, 2 ch, ~128.00 kbps avg
Общее
Полное имя : D:\Фильмы\Chirk.Babochek.2009.XviD.HDRip.avi
Формат : AVI
Формат/Информация : Audio Video Interleave
Размер файла : 250 Мбайт
Продолжительность : 22 м.
Общий поток : 1549 Кбит/сек
Программа кодирования : VirtualDubMod 1.5.10.2 (build 2542/release)
Библиотека кодирования : VirtualDubMod build 2542/release

Видео
Идентификатор : 0
Формат : MPEG-4 Visual
Профиль формата : Advanced Simple@L5
Параметр BVOP формата : 1
Параметр QPel формата : Нет
Параметр GMC формата : Без точки перехода
Параметр матрицы формата : Default (H.263)
Режим смешивания : Сжатый битовый поток
Идентификатор кодека : XVID
Идентификатор кодека/Подсказка : XviD
Продолжительность : 22 м.
Битрейт : 1411 Кбит/сек
Ширина : 720 пикселей
Высота : 288 пикселей
Соотношение сторон : 2,500
Частота кадров : 25,000 кадров/сек
Цветовое пространство : YUV
Субдискретизация насыщенности : 4:2:0
Битовая глубина : 8 бит
Тип развёртки : Прогрессивная
Метод сжатия : С потерями
Бит/(Пиксели*Кадры) : 0.272
Размер потока : 228 Мбайт (91%)
Библиотека кодирования : XviD 1.2.1 (UTC 2008-12-04)

Аудио
Идентификатор : 1
Формат : MPEG Audio
Версия формата : Version 1
Профиль формата : Layer 3
Режим : Joint stereo
Расширение режима : MS Stereo
Идентификатор кодека : 55
Идентификатор кодека/Подсказка : MP3
Продолжительность : 22 м.
Вид битрейта : Постоянный
Битрейт : 128 Кбит/сек
Каналы : 2 канала
Частота : 48,0 КГц
Метод сжатия : С потерями
Размер потока : 20,7 Мбайт (8%)
Выравнивание : Разделение по промежуткам
Продолжительность промежутка : 40 мс. (1,00 видеокадр)
Время предзагрузки промежутка : 500 мс.
Библиотека кодирования : LAME3.90.3



Скачать Цирк.Бабочек.The.Butterfly.Circus.(Джошуа.Вайгель.Joshua.Weigel).[2009.США.Драма.притча.HDRip].[VO].torrent без регистрации
Золото ЗОЛОТАЯ РАЗДАЧА! СКАЧАННОЕ НЕ ЗАСЧИТЫВАЕТСЯ! Золото
Дата: Зарегистрирован   [ Тип: внутренний ] Как тут cкачать?
MAGNET ссылка
MAGNET ссылка


Скачать .torrent

20 KB

Статус: проверено DHT
Скачан: торрент - 263 раз, раздача полностью - 210 раз
Размер: 250 MB
Оценка:  5 (Голосов: 1)
Поблагодарили: 2
Поделиться ссылкой на эту раздачу с друзьями:
В контактеFacebookОдноклассникиTwitterLivejournalМой МирLiveinternet
 

 

deniska1975

[] 

Полезный фильм для всех!!!
 
Показать сообщения:    


Вы не можете начинать темы
Вы не можете отвечать на сообщения
Вы не можете редактировать свои сообщения
Вы не можете удалять свои сообщения
Вы не можете голосовать в опросах
Вы не можете прикреплять файлы к сообщениям
Вы можете скачивать файлы