Loading...
Error

Скачать Внезапно беременна / Baby on Board (Брайан Херцлингер) [2009, комедия, HDRip] [VO] торрент без регистрации

 
Статистика раздачи
Размер:  749 MB   |    Скачан:  120 раз
Сидов:  1  [  0 KB/s  ]  
 
Автор Сообщение

МихаНЕзатор

[] 

Год выпуска: 2009
Страна: США
Киностудия: A Plus Entertainment

Жанр: Комедия
Продолжительность: 1:33:55

Перевод: Профессиональный (одноголосый) Вадим Белов
Субтитры: Английский
Оригинальная аудидорожка: нет

Режиссер: Брайан Херцлингер / Brian Herzlinger

В ролях: Хетэр Грэм, Джерри О'Коннелл, Джон Корбетт, Лара Флинн Бойл, Кэти Финнеран, Брайан Силлс, Энтони Старк, Тина Адамс...

Описание: Что может перевернуть жизнь удачливой деловой пары с ног на голову? Финансовый кризис? Приезд тещи? Наводнение? Землетрясение? Нет Такой силой обладает только фраза «Я Беременна!». Вот тут-то все и начинается

Исходник: BDRip 720p
Качество видео: HDRip
Формат видео: AVI

Видео: 720x384 (1,875), 23.976 fps, XviD ~ 970 kbps avg, 0.146 bit/pixel
Аудио: Русский, 48 kHz, MPEG Layer 3, 2 ch, 128.00 kbps Constant
Формат субтитров: SoftSub (srt)

Общее
Полное имя : Vnezapno.beremenna.2009.BDRip.746MG.avi
Формат : AVI
Формат/Информация : Audio Video Interleave
Размер файла : 749 Мбайт
Продолжительность : 1 ч. 34 м.
Общий поток : 1106 Кбит/сек
Программа кодирования : VirtualDubModRus 1.5.10.2 (build 2542/release)
Библиотека кодирования : VirtualDubMod build 2542/release

Видео
Идентификатор : 0
Формат : MPEG-4 Visual
Профиль формата : Advanced Simple@L5
Параметр BVOP формата : 1
Параметр QPel формата : Нет
Параметр GMC формата : Без точки перехода
Параметр матрицы формата : Выборочная
Идентификатор кодека : XVID
Идентификатор кодека/Подсказка : XviD
Продолжительность : 1 ч. 34 м.
Битрейт : 970 Кбит/сек
Ширина : 720 пикс.
Высота : 384 пикс.
Соотношение сторон : 1,875
Частота кадров : 23,976 кадр/сек
Цветовое пространство : YUV
Подвыборка цветности : 4:2:0
Битовая глубина : 8 бит
Тип развёртки : Прогрессивная
Метод сжатия : С потерями
Бит/(Пиксели*Кадры) : 0.146
Размер потока : 657 Мбайт (88%)
Библиотека кодирования : XviD 1.2.1 (UTC 2008-12-04)

Аудио
Идентификатор : 1
Формат : MPEG Audio
Версия формата : Version 1
Профиль формата : Layer 3
Режим : Joint stereo
Расширение режима : MS Stereo
Идентификатор кодека : 55
Идентификатор кодека/Подсказка : MP3
Продолжительность : 1 ч. 33 м.
Вид битрейта : Постоянный
Битрейт : 128 Кбит/сек
Каналы : 2 канала
Частота : 48,0 КГц
Метод сжатия : С потерями
Размер потока : 86,0 Мбайт (11%)
Выравнивание : Соединение по промежуткам
Продолжительность промежутка : 42 мс. (1,01 видеокадр)
Время предзагрузки промежутка : 504 ms
Библиотека кодирования : LAME3.99 (alpha)



Скачать Внезапно.беременна.Baby.on.Board.(Брайан.Херцлингер).[2009.комедия.HDRip].[VO].torrent без регистрации
Золото ЗОЛОТАЯ РАЗДАЧА! СКАЧАННОЕ НЕ ЗАСЧИТЫВАЕТСЯ! Золото
Дата: Зарегистрирован   [ Тип: внутренний ] Как тут cкачать?
MAGNET ссылка
MAGNET ссылка


Скачать .torrent

15 KB

Статус: проверено DHT
Скачан: торрент - 120 раз, раздача полностью - 19 раз
Размер: 749 MB
Оценка:  - (Голосов: 0)
Поблагодарили: 1
Поделиться ссылкой на эту раздачу с друзьями:
В контактеFacebookОдноклассникиTwitterLivejournalМой МирLiveinternet
 

 
Показать сообщения:    


Вы не можете начинать темы
Вы не можете отвечать на сообщения
Вы не можете редактировать свои сообщения
Вы не можете удалять свои сообщения
Вы не можете голосовать в опросах
Вы не можете прикреплять файлы к сообщениям
Вы можете скачивать файлы