Loading...
Error

Скачать Тренер Картер / Coach Carter (Томас Картер / Thomas Carter) [2005, Драма, спорт, BDRip] [MVO] торрент без регистрации

 
Статистика раздачи
Размер:  1,46 GB   |    Скачан:  169 раз
Сидов:  1  [  0 KB/s  ]  
 
Автор Сообщение

deniska1975

[] 

Тренер Картер / Coach Carter
«Это началось на улицах. Это закончилось здесь.»


Название: Тренер Картер
Оригинальное название: Coach Carter
Год выпуска: 2005
Страна: США, Германия
Жанр: драма, спорт
Продолжительность: 02:16:20
Перевод: Профессиональный (многоголосый закадровый)
Cубтитры: нет
Режиссер:
Томас Картер / Thomas Carter
В ролях:
Сэмюэл Л. Джексон, Ченнинг Татум, Ашанти, Октавия Спенсер, Роб Браун, Роберт Ричард, Рик Гонсалес, Нана Гбивонио, Энтвон Тэннер, Тексас Бэттл, Дениз Дауз, Дэбби Морган, Мел Уинклер, Винсент Лареска, Сидни Фэйзон, Соня Эдди, Гвен МакГи, Осанта, Адам Кларк, Пол Рэй, Юджин Ли, Эдриэнн Байлон, Дэна Дэвис, Боб Костас
Описание:
Фильм основан на реальной истории, происшедшей в 1999 году в Ричмонде, штат Калифорния. Тренер школьной команды по баскетболу Кен Картер принял в середине сезона беспрецедентное решение, запретив игрокам, не испытавшим еще ни одного поражения, выходить на площадку из-за низкой успеваемости в школе. В итоге команда пропустила две игры в чемпионате, а юным баскетболистам был закрыт доступ в спортзал до тех пор, пока они не стали хорошо учиться. Поступок Картера вызвал одновременно и одобрение, и резкую критику со стороны родителей игроков и школьного руководства. Среди членов команды был и сын тренера, поступивший впоследствии в престижное учебное заведение.
IMDB | КиноПоиск
Качество: BDRip
Формат: AVI
Видео кодек: XviD
Аудио кодек: АС3
Видео: 720x304 (2.37:1), 23.976 fps, XviD build 65 ~1329 kbps avg, 0.25 bit/pixel
Аудио: 48 kHz, AC3 Dolby Digital, 2/0 (L,R) ch, ~192.00 kbps avg

Общее
Полное имя : D:\Фильмы\Trener_Karter_2005_BDRip_by_Dalemake.avi
Формат : AVI
Формат/Информация : Audio Video Interleave
Размер файла : 1,46 Гбайт
Продолжительность : 2 ч. 16 м.
Общий поток : 1531 Кбит/сек
Программа кодирования : VirtualDubMod 1.5.10.3 | www.virtualdub-fr.org || (build 2550/release)
Библиотека кодирования : VirtualDubMod build 2550/release

Видео
Идентификатор : 0
Формат : MPEG-4 Visual
Профиль формата : Advanced Simple@L5
Параметр BVOP формата : 1
Параметр QPel формата : Нет
Параметр GMC формата : Без точки перехода
Параметр матрицы формата : Выборочная
Идентификатор кодека : XVID
Идентификатор кодека/Подсказка : XviD
Продолжительность : 2 ч. 16 м.
Битрейт : 1330 Кбит/сек
Ширина : 720 пикселей
Высота : 304 пикселя
Соотношение сторон : 2,35:1
Частота кадров : 23,976 кадра/сек
Цветовое пространство : YUV
Субдискретизация насыщенности : 4:2:0
Битовая глубина : 8 бит
Тип развёртки : Прогрессивная
Метод сжатия : С потерями
Бит/(Пиксели*Кадры) : 0.253
Размер потока : 1,27 Гбайт (87%)
Библиотека кодирования : XviD 65

Аудио
Идентификатор : 1
Формат : AC-3
Формат/Информация : Audio Coding 3
Расширение режима : CM (complete main)
Параметр Endianness формата : Big
Идентификатор кодека : 2000
Продолжительность : 2 ч. 16 м.
Вид битрейта : Постоянный
Битрейт : 192 Кбит/сек
Каналы : 2 канала
Расположение каналов : Front: L R
Частота : 48,0 КГц
Битовая глубина : 16 бит
Метод сжатия : С потерями
Размер потока : 187 Мбайт (13%)
Выравнивание : Разделение по промежуткам
Продолжительность промежутка : 42 мс. (1,00 видеокадр)
Время предзагрузки промежутка : 500 мс.





Скачать Тренер.Картер.Coach.Carter.(Томас.Картер.Thomas.Carter).[2005.Драма.спорт.BDRip].[MVO].torrent без регистрации
Золото ЗОЛОТАЯ РАЗДАЧА! СКАЧАННОЕ НЕ ЗАСЧИТЫВАЕТСЯ! Золото
Дата: Зарегистрирован   [ Тип: внутренний ] Как тут cкачать?
MAGNET ссылка
MAGNET ссылка


Скачать .torrent

15 KB

Статус: проверено DHT
Скачан: торрент - 169 раз, раздача полностью - 386 раз
Размер: 1,46 GB
Оценка:  5 (Голосов: 1)
Поблагодарили: 1
Поделиться ссылкой на эту раздачу с друзьями:
В контактеFacebookОдноклассникиTwitterLivejournalМой МирLiveinternet
 

 
Показать сообщения:    


Вы не можете начинать темы
Вы не можете отвечать на сообщения
Вы не можете редактировать свои сообщения
Вы не можете удалять свои сообщения
Вы не можете голосовать в опросах
Вы не можете прикреплять файлы к сообщениям
Вы можете скачивать файлы