Loading...
Error

Скачать Подпольная империя / Boardwalk Empire (Полный 3-ий сезон) (Тимоти Ван Паттен, Аллен Култер, Джереми Подесва) [2012, драма, криминал, HDTV] [1080i] [MVO] + [AVO] (Ю. Сербин) торрент без регистрации

 
Статистика раздачи
Размер:  61,53 GB   |    Скачан:  349 раз
Сидов:  1  [  0 KB/s  ]  
 
Автор Сообщение

leon030982

[] 

Подпольная империя / Boardwalk Empire

Год выпуска: 2012
Страна: США
Жанр: драма, криминал
Продолжительность серии: ~00:55:00
Перевод 1: Профессиональный (многоголосый закадровый) [LostFilm]
Перевод 2: Авторский (одноголосый закадровый) - Ю. Сербин

Режиссёр: Тимоти Ван Паттен, Аллен Култер, Джереми Подесва
Продюсер: Мартин Скорсезе
Сценарий: Теренс Уинтер
В ролях: Стив Бушеми, Майкл Питт, Келли Макдоналд, Майкл Шеннон, Ши Уигхэм, Алекса Палладино, Майкл Стулбарг, Стивен Грэм, Винсент Пьяцца, Джек Хьюстон

Описание: События сериала Boardwalk Empire происходят в 1920, начале 1930 годов, во время рассвета сухого закона и итальянской мафии. В сериале представлены такие знаменитости криминального мира, как Сальваторе «Счастливчик» Лучиано и Аль Капоне. Главные герои, Наки Томпсон (в исполнении Стива Бушеми) – негласный правитель Атлантик-Сити, в равной степени гангстер и политик и его помошник Джимми Дармоди (Майкл Питт). Зрители сериала окунутся в грязный мир политики и игорного бизнеса, мафиозных разборок и зажигательного варьете.
Сериал снят по мотивам романа Нельсона Джонсона, посвященной зарождению одного из крупнейших игорных центров США — Атлантик-Сити. Роли в сериале исполняют мировые знаменитости — Стив Бушеми, Келли МакДональд, Майкл Шеннон, Майкл К. Уильямс и другие. Станет ли «Boardwalk Empire» таким же незабываемым сериалом как «The Sopranos» или «The Wire» покажет время.

«Нельзя быть гангстером наполовину.»


Сэмпл: http://multi-up.com/762388
Источник: Boardwalk.Empire.S03E01.1080i.HDTV.MPEG2.DD5.1-CtrlHD
Качество: HDTV 1080i
Формат: TS
Видео кодек: MPEG2
Аудио кодек: AC3
Видео: MPEG-2, 1920x1080i, 29.97 fps, ~11.2 Mbps, 0.18 bit/pixel
Аудио #1: Русский: 48 kHz, AC3, 3/2 (L,C,R,l,r) + LFE ch, ~384.00 kbps avg |Многоголосый закадровый, LostFilm|
Аудио #2: Русский: 48 kHz, AC3, 3/2 (L,C,R,l,r) + LFE ch, ~384.00 kbps avg |Одноголосый закадровый, Ю. Сербин|
Аудио #3: Английский: 48 kHz, AC3, 3/2 (L,C,R,l,r) + LFE ch, ~384.00 kbps avg
Выражаем благодарность пользователям, оказавшим поддержку в подготовке озвучки Ю. Сербина : PersonalNU, olegk1980, Loki1982, ochkarik1.
• Реально существовавший Енох «Наки» Джонсон (Enoch L. Johnson) послужил прототипом для «Наки» Томпсона. Внешне Джонсон совершенно не походил на актера Стива Бушеми: это был представительный мужчина, высокий и грузный, с лысиной, — и напоминал скорее персонажа Тони Сопрано из сериала «Клан Сопрано». Создатель «Подпольной империи» Теренс Уинтер, также работавший над сценариями серий для «Клана Сопрано», хотел создать персонаж «Наки», отличающийся от образа, реального или сыгранного Джеймсом Гандольфини.
• Для рекламы второго сезона сериала, начиная с 25 сентября 2011 года, в Нью-Йоркском метро были выпущены на линию исторические вагоны типа «Lo-V» (Low Voltage). Они выпускались с 1916 по 1925 год, и эксплуатировались до 1969 года. В составе исторического поезда были использованы вагоны N 5290, 5292 постройки 1917 года, и вагоны N 5443, 5483 постройки 1924 года. Вместо станции отправления и назначения, на вагонах были установлены таблички с рекламой сериала, рекламными постерами сериала также были обклеены вагоны изнутри. Исторический поезд ходил по маршруту IRT, от станций 42nd Street до станции 96th Street, с единственной остановкой на станции 72nd Street.
• Атлантик-Сити двадцатых годов был в точности воссоздан в Бруклине (Нью-Йорк). Бюджет премьерной серии составил $18 млн, из которых $5 млн пошли на воссоздание городского квартала со всеми внутренними интерьерами, а также сооружение дощатого настила набережной длиной около 91,5 метров. Исполнительный продюсер и режиссер пилотной серии Мартин Скорсезе был настолько требователен в плане точности, что, например, настаивал, чтобы доски для настила были точно такого же размера, как они были в Атлантик-Сити в то время.
01: Resolution / Обещание
General
ID : 1 (0x1)
Complete name : Boardwalk.Empire.S03E01.1080i.HDTV.Rus.Eng.HDCLUB.ts
Format : MPEG-TS
File size : 5.00 GiB
Duration : 56mn 58s
Overall bit rate mode : Variable
Overall bit rate : 12.6 Mbps
Maximum Overall bit rate : 35.5 Mbps
Video
ID : 4113 (0x1011)
Menu ID : 1 (0x1)
Format : MPEG Video
Format version : Version 2
Format profile : Main@High
Format settings, BVOP : Yes
Format settings, Matrix : Custom
Codec ID : 2
Duration : 56mn 57s
Bit rate mode : Variable
Bit rate : 11.2 Mbps
Maximum bit rate : 24.0 Mbps
Width : 1 920 pixels
Height : 1 080 pixels
Display aspect ratio : 16:9
Frame rate : 29.970 fps
Color space : YUV
Chroma subsampling : 4:2:0
Bit depth : 8 bits
Compression mode : Lossy
Bits/(Pixel*Frame) : 0.180
Stream size : 4.45 GiB (89%)
Audio #1
ID : 4352 (0x1100)
Menu ID : 1 (0x1)
Format : AC-3
Format/Info : Audio Coding 3
Mode extension : CM (complete main)
Format settings, Endianness : Big
Codec ID : 129
Duration : 56mn 58s
Bit rate mode : Constant
Bit rate : 384 Kbps
Channel(s) : 6 channels
Channel positions : Front: L C R, Side: L R, LFE
Sampling rate : 48.0 KHz
Bit depth : 16 bits
Compression mode : Lossy
Delay relative to video : -67ms
Stream size : 156 MiB (3%)
Language : Russian
Audio #2
ID : 4353 (0x1101)
Menu ID : 1 (0x1)
Format : AC-3
Format/Info : Audio Coding 3
Mode extension : CM (complete main)
Format settings, Endianness : Big
Codec ID : 129
Duration : 56mn 58s
Bit rate mode : Constant
Bit rate : 384 Kbps
Channel(s) : 6 channels
Channel positions : Front: L C R, Side: L R, LFE
Sampling rate : 48.0 KHz
Bit depth : 16 bits
Compression mode : Lossy
Delay relative to video : -67ms
Stream size : 156 MiB (3%)
Language : English
Text #1
ID : 4113 (0x1011)-CC1
Menu ID : 1 (0x1)
Format : EIA-608
Muxing mode : A/53 / DTVCC Transport
Muxing mode, more info : Muxed in Video #1
Duration : 56mn 57s
Bit rate mode : Constant
Stream size : 0.00 Byte (0%)
Text #2
ID : 4113 (0x1011)-CC3
Menu ID : 1 (0x1)
Format : EIA-608
Muxing mode : A/53 / DTVCC Transport
Muxing mode, more info : Muxed in Video #1
Duration : 56mn 57s
Bit rate mode : Constant
Stream size : 0.00 Byte (0%)
Text #3
ID : 4113 (0x1011)-1
Menu ID : 1 (0x1)
Format : EIA-708
Muxing mode : A/53 / DTVCC Transport
Muxing mode, more info : Muxed in Video #1
Duration : 56mn 57s
Bit rate mode : Constant
Stream size : 0.00 Byte (0%)
Text #4
ID : 4113 (0x1011)-2
Menu ID : 1 (0x1)
Format : EIA-708
Muxing mode : A/53 / DTVCC Transport
Muxing mode, more info : Muxed in Video #1
Duration : 56mn 57s
Bit rate mode : Constant
Stream size : 0.00 Byte (0%)
Внимание! Раздача ведётся путём добавления новых серий, при каждом добавлении создаётся новый торрент. Чтобы начать докачку новой серии, пользователям необходимо сделать следующее:
(1) остановить скачивание,
(2) удалить старый торрент у себя из клиента (старые серии удалять не надо),
(3) скачать новый торрент и запустить его у себя в клиенте вместо старого, при этом указать клиенту путь в старую папку куда и должно происходить скачивание новых серий.
Ваш клиент при этом должен произвести хеширование (проверку) старой папки (если не производит сам - помогите ему сделать это), и будет докачивать только те серии которых у вас ещё нет. Старые серии при этом не удаляются, а продолжают раздаваться!
Если вы уже удалили старые серии, то предотвратить повторную закачку старых серий можно, отжав галочку в соответствующих местах при запуске нового торрента. По возможности, желательно не удалять старые серии как можно дольше чтобы релизёр не столько продолжал раздавать старые серии, а смог сконцентрироваться на новых.
11.12.12 добавлена финальная 12-я серия!



Скачать Подпольная.империя.Boardwalk.Empire.(Полный.3-ий.сезон).(Тимоти.Ван.Паттен.Аллен.Култер.Джереми.Подесва).[2012.драма.криминал.HDTV].[1080i].[MVO].+.[AVO].(Ю.Сербин).torrent без регистрации
Золото ЗОЛОТАЯ РАЗДАЧА! СКАЧАННОЕ НЕ ЗАСЧИТЫВАЕТСЯ! Золото
Дата: Зарегистрирован   [ Тип: внутренний ] Как тут cкачать?
MAGNET ссылка
MAGNET ссылка


Скачать .torrent

155 KB

Статус: проверено DHT
Скачан: торрент - 349 раз, раздача полностью - 13 раз
Размер: 61,53 GB
Оценка:  - (Голосов: 0)
Поблагодарили: 1
Поделиться ссылкой на эту раздачу с друзьями:
В контактеFacebookОдноклассникиTwitterLivejournalМой МирLiveinternet
 

 
Показать сообщения:    


Вы не можете начинать темы
Вы не можете отвечать на сообщения
Вы не можете редактировать свои сообщения
Вы не можете удалять свои сообщения
Вы не можете голосовать в опросах
Вы не можете прикреплять файлы к сообщениям
Вы можете скачивать файлы