Loading...
Error

Скачать Ртуть / Mercury Man (Бхандит Тонгди) [2006, боевик, HDRip-AVC] [DVO] торрент без регистрации

 
Статистика раздачи
Размер:  2,17 GB   |    Скачан:  135 раз
Сидов:  1  [  0 KB/s  ]  
 
Автор Сообщение

МихаНЕзатор

[] 

Страна: Тайланд
Студия: SAHAMONGKOLFILM INTERNATIONAL
Жанр: боевик
Год выпуска: 2006
Продолжительность: 01:45:34

Перевод: Профессиональный (двухголосый закадровый)
Субтитры: русские
Оригинальная аудиодорожка: Тайский

Режиссер: Бхандит Тонгди / Bhandit Thongdee

В ролях: Либби Брайан, Кулет Эрик, Филип Херш, Parinya Jaroenphon, Васан Хантау, Jinvipa Kheawkunya, Паринья Киятбусаба, Matinee Kingpoyom, Эрик Маркус Шуетз, Алаа Омузун...

Описание: Древний тибетский амулет превращает обычного пожарного из Бангкока в супергероя. Его тело становится подобно мощному источнику высокой температуры, у него появляется способность молниеносно передвигаться и очень далеко прыгать. Для супергероя очень скоро найдется сверхзадача спасти США от афганских террористов, замышляющих разрушить страну. К тому же супермен должен одолеть Арену, которой подвластна сила холода и льда. Они сошлись лед и пламень

Источник: BDRip 720p
Тип релиза: HDRip-AVC
Контейнер: MKV

Видео: 1024x576 (16:9), 23.976 fps, H264 ~2053 kbps avg, 0.145 bit/pixel
Аудио : Русский 48 kHz, AC3, 6 ch, 448.00 kbps Constant
Аудио 2: Тайский 48 kHz, AC3, 6 ch, 448.00 kbps Constant
Формат субтитров: softsub (SRT)

General
Complete name : Rtut.2006.P2.HDRip-AVC.mkv
Format : Matroska
File size : 2.17 GiB
Duration : 1h 45mn
Overall bit rate : 2 948 Kbps
Movie name : avproh
Encoded date : UTC 2010-08-30 17:49:58
Writing application : mkvmerge v4.1.1 ('Bouncin' Back') сборка от Jul 3 2010 22:54:08
Writing library : libebml v1.0.0 + libmatroska v1.0.0

Video
ID : 1
Format : AVC
Format/Info : Advanced Video Codec
Format profile : High@L4.1
Format settings, CABAC : Yes
Format settings, ReFrames : 11 frames
Muxing mode : Container profile=Unknown@4.1
Codec ID : V_MPEG4/ISO/AVC
Duration : 1h 45mn
Bit rate : 2 053 Kbps
Width : 1 024 pixels
Height : 576 pixels
Display aspect ratio : 16:9
Frame rate : 23.976 fps
Color space : YUV
Chroma subsampling : 4:2:0
Bit depth : 8 bits
Scan type : Progressive
Bits/(Pixel*Frame) : 0.145
Stream size : 1.47 GiB (68%)
Writing library : x264 core 104 r1675 2484aa0
Encoding settings : cabac=1 / ref=11 / deblock=1:-2:-1 / analyse=0x3:0x113 / me=umh / subme=9 / psy=1 / psy_rd=1.00:0.10 / mixed_ref=1 / me_range=32 / chroma_me=1 / trellis=1 / 8x8dct=1 / cqm=0 / deadzone=21,11 / fast_pskip=1 / chroma_qp_offset=-3 / threads=4 / sliced_threads=0 / nr=0 / decimate=1 / interlaced=0 / constrained_intra=0 / bframes=6 / b_pyramid=2 / b_adapt=1 / b_bias=0 / direct=3 / weightb=1 / open_gop=0 / weightp=0 / keyint=250 / keyint_min=23 / scenecut=40 / intra_refresh=0 / rc_lookahead=80 / rc=2pass / mbtree=1 / bitrate=2053 / ratetol=1.0 / qcomp=0.60 / qpmin=10 / qpmax=51 / qpstep=4 / cplxblur=20.0 / qblur=0.5 / ip_ratio=1.40 / aq=1:1.00

Audio #1
ID : 2
Format : AC-3
Format/Info : Audio Coding 3
Mode extension : CM (complete main)
Codec ID : A_AC3
Duration : 1h 45mn
Bit rate mode : Constant
Bit rate : 448 Kbps
Channel(s) : 6 channels
Channel positions : Front: L C R, Side: L R, LFE
Sampling rate : 48.0 KHz
Bit depth : 16 bits
Stream size : 338 MiB (15%)
Title : AC3 5.1 448 kbps
Language : Russian

Audio #2
ID : 3
Format : AC-3
Format/Info : Audio Coding 3
Mode extension : CM (complete main)
Codec ID : A_AC3
Duration : 1h 45mn
Bit rate mode : Constant
Bit rate : 448 Kbps
Channel(s) : 6 channels
Channel positions : Front: L C R, Side: L R, LFE
Sampling rate : 48.0 KHz
Bit depth : 16 bits
Stream size : 338 MiB (15%)
Title : AC3 5.1 448 kbps
Language : Thai

Text
ID : 4
Format : UTF-8
Codec ID : S_TEXT/UTF8
Codec ID/Info : UTF-8 Plain Text
Language : Russian

Menu #1
00:00:00.000 : ru:

Menu #2
00:05:00.000 : ru:

Menu #3
00:10:00.000 : ru:

Menu #4
00:15:00.000 : ru:

Menu #5
00:20:00.000 : ru:

Menu #6
00:25:00.000 : ru:

Menu #7
00:30:00.000 : ru:

Menu #8
00:35:00.000 : ru:

Menu #9
00:40:00.000 : ru:

Menu #10
00:45:00.000 : ru:

Menu #11
00:50:00.000 : ru:

Menu #12
00:55:00.000 : ru:

Menu #13
01:00:00.000 : ru:

Menu #14
01:05:00.000 : ru:

Menu #15
01:10:00.000 : ru:

Menu #16
01:15:00.000 : ru:

Menu #17
01:20:00.000 : ru:

Menu #18
01:25:00.000 : ru:

Menu #19
01:30:00.000 : ru:

Menu #20
01:35:00.000 : ru:

Menu #21
01:40:00.000 : ru:



Скачать Ртуть.Mercury.Man.(Бхандит.Тонгди).[2006.боевик.HDRip-AVC].[DVO].torrent без регистрации
Золото ЗОЛОТАЯ РАЗДАЧА! СКАЧАННОЕ НЕ ЗАСЧИТЫВАЕТСЯ! Золото
Дата: Зарегистрирован   [ Тип: внутренний ] Как тут cкачать?
MAGNET ссылка
MAGNET ссылка


Скачать .torrent

22 KB

Статус: проверено DHT
Скачан: торрент - 135 раз, раздача полностью - 35 раз
Размер: 2,17 GB
Оценка:  5 (Голосов: 1)
Поблагодарили: 2
Поделиться ссылкой на эту раздачу с друзьями:
В контактеFacebookОдноклассникиTwitterLivejournalМой МирLiveinternet
 

 
Показать сообщения:    


Вы не можете начинать темы
Вы не можете отвечать на сообщения
Вы не можете редактировать свои сообщения
Вы не можете удалять свои сообщения
Вы не можете голосовать в опросах
Вы не можете прикреплять файлы к сообщениям
Вы можете скачивать файлы