Loading...
Error

Скачать Лёд в сердце / Go Figure (Френсин МакДугалл / Francine McDougall) [2005, США, комедия, семейный, спорт, HDTVRip] [Dub + Original] торрент без регистрации

 
Статистика раздачи
Размер:  1,46 GB   |    Скачан:  149 раз
Сидов:  1  [  0 KB/s  ]  
 
Автор Сообщение

deniska1975

[] 

Лёд в сердце / Go Figure

Русское название: Лёд в сердце
Оригинальное название: Go Figure
Страна: США
Год выпуска: 2005
Жанр: Комедия, Семейный,Спорт
Продолжительность: 01:27:58
Перевод: Дублированный

Режиссер: Франсин МакДугалл

Актеры: Джордан Хинсон, Уитни Слоун, Кристин Роуз, Райан Малгарини, Таня Гунади, Эми Халлоран, Бриттани Каррен, Сабрина Спир, Кристи Ямагучи, Джоди Расселл

Описание фильма:
Молодая девушка по имени Кэтлин Кинсфорт мечтала стать лучшей фигуристкой. И к ней на помощь пришла лучший тренер по фигурному катанию Наташа Гоберман. Но так как ее родители отказали в оплате за тренировки, ей пришлось жить на хоккейной стипендии. Но сложилось не так, как хотела наша героиня. Она полюбила и хоккей и фигурное катание. Все шло отлично как вдруг ей пришлось выбирать между фигурным катанием и хоккеем. Поразмыслив она выбрала хоккей. Но Орлы проиграли в схватке с Тиграми. Но ей везет! Судьба предоставила ей шанс осуществить ее мечту: стать лучшей фигуристкой из лучших!




Формат: AVI
Качество видео: HDTVRip
Видео: 720x400 (1.80:1), 23.976 fps, XviD build 47 ~1783 kbps avg, 0.26 bit/pixel
Аудио 1: 192Кбит/сек,48,0 КГц,18 бит,2 канала (Русский дубляж)
Аудио 2: 384 Кбит/сек,48,0 КГц,18 бит,2 канала (Английский оригинал)
Общее
Полное имя : C:\Documents and Settings\Admin\Мои документы\Downloads\Go_ Figure.avi
Формат : AVI
Формат/Информация : Audio Video Interleave
Размер файла : 1,46 Гбайт
Продолжительность : 1 ч. 27 м.
Общий поток : 2375 Кбит/сек
Программа кодирования : VirtualDubModRus 1.5.10.1 (build 2439/release)
Библиотека кодирования : VirtualDubMod build 2439/release

Видео
Идентификатор : 0
Формат : MPEG-4 Visual
Профиль формата : Advanced Simple@L5
Параметр BVOP формата : 3
Параметр QPel формата : Нет
Параметр GMC формата : Без точки перехода
Параметр матрицы формата : Default (H.263)
Идентификатор кодека : XVID
Идентификатор кодека/Подсказка : XviD
Продолжительность : 1 ч. 27 м.
Битрейт : 1785 Кбит/сек
Ширина : 720 пикс.
Высота : 400 пикс.
Соотношение сторон : 16:9
Частота кадров : 23,976 кадр/сек
Цветовое пространство : YUV
Подвыборка цветности : 4:2:0
Битовая глубина : 8 бит
Тип развёртки : Прогрессивная
Метод сжатия : С потерями
Бит/(Пиксели*Кадры) : 0.258
Размер потока : 1,10 Гбайт (75%)
Библиотека кодирования : XviD 1.2.0.dev47 (UTC 2006-11-01)

Аудио #1
Идентификатор : 1
Формат : AC-3
Формат/Информация : Audio Coding 3
Расширение режима : CM (complete main)
Идентификатор кодека : 2000
Продолжительность : 1 ч. 27 м.
Вид битрейта : Постоянный
Битрейт : 192 Кбит/сек
Каналы : 2 канала
Расположение каналов : Front: L R
Частота : 48,0 КГц
Битовая глубина : 16 бит
Метод сжатия : С потерями
Размер потока : 121 Мбайт (8%)
Выравнивание : Разделение по промежуткам
Продолжительность промежутка : 42 мс. (1,00 видеокадр)
Время предзагрузки промежутка : 500 ms

Аудио #2
Идентификатор : 2
Формат : AC-3
Формат/Информация : Audio Coding 3
Расширение режима : CM (complete main)
Идентификатор кодека : 2000
Продолжительность : 1 ч. 27 м.
Вид битрейта : Постоянный
Битрейт : 384 Кбит/сек
Каналы : 6 каналов
Расположение каналов : Front: L C R, Side: L R, LFE
Частота : 48,0 КГц
Битовая глубина : 16 бит
Метод сжатия : С потерями
Размер потока : 242 Мбайт (16%)
Выравнивание : Разделение по промежуткам
Продолжительность промежутка : 42 мс. (1,00 видеокадр)
Время предзагрузки промежутка : 500 ms












Скачать Лёд.в.сердце.Go.Figure.(Френсин.МакДугалл.Francine.McDougall).[2005.США.комедия.семейный.спорт.HDTVRip].[Dub.+.Original].torrent без регистрации
Золото ЗОЛОТАЯ РАЗДАЧА! СКАЧАННОЕ НЕ ЗАСЧИТЫВАЕТСЯ! Золото
Дата: Зарегистрирован   [ Тип: внутренний ] Как тут cкачать?
MAGNET ссылка
MAGNET ссылка


Скачать .torrent

15 KB

Статус: проверено DHT
Скачан: торрент - 149 раз, раздача полностью - 46 раз
Размер: 1,46 GB
Оценка:  5 (Голосов: 1)
Поблагодарили: 1
Поделиться ссылкой на эту раздачу с друзьями:
В контактеFacebookОдноклассникиTwitterLivejournalМой МирLiveinternet
 

 
Показать сообщения:    


Вы не можете начинать темы
Вы не можете отвечать на сообщения
Вы не можете редактировать свои сообщения
Вы не можете удалять свои сообщения
Вы не можете голосовать в опросах
Вы не можете прикреплять файлы к сообщениям
Вы можете скачивать файлы