Loading...
Error

Скачать Доктор мафии / The Mob Doctor (Полный 1-ый сезон) (Майкл Диннер) [2012 г., драма, WEB-DLRip] [DVO] (NewStudio) торрент без регистрации

 
Статистика раздачи
Размер:  6,98 GB   |    Скачан:  198 раз
Сидов:  1  [  0 KB/s  ]  
 
Автор Сообщение

leon030982

[] 



Доктор мафии / The Mob Doctor


Год выпуска: 2012
Страна: США | FOX
Жанр: драма
Продолжительность: ~ 44 минуты
Перевод: Профессиональный (двухголосый, закадровый) - NewStudio
Субтитры: Нет
Режиссёр: Майкл Диннер
В ролях: Джордана Спиро, Желько Иванек, Роберта Чунг, Сэмюэл Медоуз, Адам Харингтон, Стив Микула и другие...
Описание: Для большинства врачей клятва Гиппократа священна. Но для одного доктора из Чикаго, которая оказалась в долгу у мафии, спасение жизней не на первом месте. The Mob Doctor — динамичная медицинская драма про талантливую молодую женщину, которая работает кардиохирургом днем, а ночью становится доктором для мафии, отрабатывая свои долги. Доктор Грейс Девлин — ведущий ординатор в медицинском центре Рузвельта в Чикаго. Умная, уверенная в себе, она один из самых многообещающих молодых хирургов страны. Но семейные узы крепко связивают ее с мафиозным миром чикагского Саутсайда. Чтобы выплатить игорный долг брата, она заключает сделку с дьяволом и соглашается работать на мафию.
Качество: WEB-DLRip
Формат: AVI
Видео кодек: XviD
Аудио кодек: MP3
Видео: 720x400 (16:9), 23.976 fps, ~1471 kbps, ~0.210 bit/pixel
Аудио Rus: 48 kHz, 2 ch, ~128 kbps |NewStudio|
Аудио Eng: 48 kHz, 2 ch, ~128 kbps |Original|
для
Озвучка: Константин Погодаев, Анна Тух (БЯКО Рекордс)
Перевод: Альберт Фасхутдинов
Подготовка видео: Koss
Работа со звуком: Baggio
Постер: Vortex
/ Сэмпл / ImDB / Кинопоиск
Pilot / Пилот
[b]Общее
Полное имя : F:\The.Mob.Doctor.s01.WEB-DLRip.NewStudio\The.Mob.Doctor.s01e01.WEBDLRip.NewStudio.TV.avi
Формат : AVI
Формат/Информация : Audio Video Interleave
Размер файла : 551 Мбайт
Продолжительность : 44 м.
Режим общего битрейта : Переменный
Общий поток : 1746 Кбит/сек
Программа кодирования : VirtualDubMod 1.5.10.2 (build 2540/release)
Библиотека кодирования : VirtualDubMod build 2540/release
Видео
Идентификатор : 0
Формат : MPEG-4 Visual
Профиль формата : Advanced Simple@L5
Параметр BVOP формата : 2
Параметр QPel формата : Нет
Параметр GMC формата : Без точки перехода
Параметр матрицы формата : Default (MPEG)
Идентификатор кодека : XVID
Идентификатор кодека/Подсказка : XviD
Продолжительность : 44 м.
Битрейт : 1471 Кбит/сек
Ширина : 720 пикселей
Высота : 400 пикселей
Соотношение сторон : 16:9
Частота кадров : 23,976 кадра/сек
Цветовое пространство : YUV
Субдискретизация насыщенности : 4:2:0
Битовая глубина : 8 бит
Тип развёртки : Прогрессивная
Метод сжатия : С потерями
Бит/(Пиксели*Кадры) : 0.213
Размер потока : 464 Мбайт (84%)
Библиотека кодирования : XviD 64
Аудио #1
Идентификатор : 1
Формат : MPEG Audio
Версия формата : Version 1
Профиль формата : Layer 3
Режим : Joint stereo
Расширение режима : MS Stereo
Идентификатор кодека : 55
Идентификатор кодека/Подсказка : MP3
Продолжительность : 44 м.
Вид битрейта : Постоянный
Битрейт : 128 Кбит/сек
Каналы : 2 канала
Частота : 48,0 КГц
Метод сжатия : С потерями
Размер потока : 40,4 Мбайт (7%)
Выравнивание : Соединение по промежуткам
Продолжительность промежутка : 42 мс. (1,00 видеокадр)
Время предзагрузки промежутка : 504 мс.
Аудио #2
Идентификатор : 2
Формат : MPEG Audio
Версия формата : Version 1
Профиль формата : Layer 3
Режим : Joint stereo
Расширение режима : MS Stereo
Идентификатор кодека : 55
Идентификатор кодека/Подсказка : MP3
Продолжительность : 44 м.
Вид битрейта : Переменный
Битрейт : 128 Кбит/сек
Каналы : 2 канала
Частота : 48,0 КГц
Метод сжатия : С потерями
Размер потока : 41,0 Мбайт (7%)
Выравнивание : Соединение по промежуткам
Продолжительность промежутка : 24 мс. (0,58 видеокадр)
Время предзагрузки промежутка : 499 мс.
Библиотека кодирования : LAME3.90.
Настройки программы : -m j -V 4 -q 2 -lowpass 17.6 --abr 128
Внимание! Раздача ведётся путём добавления новых серий; при каждом добавлении создётся новый торрент. Чтобы начать докачку новой серии, пользователям необходимо сделать следующее:Остановить скачивание.
Удалить старый торрент у себя из клиента (старые серии удалять не надо).
Скачать новый торрент и запустить его у себя в клиенте вместо старого, при этом указать клиенту путь в старую папку куда и должно происходить скачивание новых серий.Ваш клиент при этом должен произвести хеширование (проверку) старой папки (если не производит сам - помогите ему сделать это), и будет докачивать только те серии которых у вас ещё нет. Старые серии при этом не удаляются, а продолжают раздаваться!
Eсли вы уже удалили старые серии, то предотвратить повторную закачку старых серий можно, отжав галочку в соответсвующих местах при запуске нового торрента. По возможности, желательно не удалять старые серии как можно дольше чтобы релизёр не столько продолжал раздавать старые серии, а смог сконцентрироваться на новых.
[/font]
ВНИМАНИЕ!!!Раздача обновлена 28.02.13 добавлена финальная серия



Скачать Доктор.мафии.The.Mob.Doctor.(Полный.1-ый.сезон).(Майкл.Диннер).[2012.г.драма.WEB-DLRip].[DVO].(NewStudio).torrent без регистрации
Золото ЗОЛОТАЯ РАЗДАЧА! СКАЧАННОЕ НЕ ЗАСЧИТЫВАЕТСЯ! Золото
Дата: Зарегистрирован   [ Тип: внутренний ] Как тут cкачать?
MAGNET ссылка
MAGNET ссылка


Скачать .torrent

36 KB

Статус: проверено DHT
Скачан: торрент - 198 раз, раздача полностью - 115 раз
Размер: 6,98 GB
Оценка:  5 (Голосов: 2)
Поблагодарили: 4
Поделиться ссылкой на эту раздачу с друзьями:
В контактеFacebookОдноклассникиTwitterLivejournalМой МирLiveinternet
 

 

leon030982

[] 

26.02.13 добавлена 12-я серия
 
Показать сообщения:    


Вы не можете начинать темы
Вы не можете отвечать на сообщения
Вы не можете редактировать свои сообщения
Вы не можете удалять свои сообщения
Вы не можете голосовать в опросах
Вы не можете прикреплять файлы к сообщениям
Вы можете скачивать файлы