Loading...
Error

Скачать Реаниматор / Re-Animator (Стюарт Гордон / Stuart Gordon) [1985, ужасы, фантастика, BDRip-AVC] [MVO] + [AVO] (Гаврилов) торрент без регистрации

 
Статистика раздачи
Размер:  2,91 GB   |    Скачан:  130 раз
Сидов:  1  [  0 KB/s  ]  
 
Автор Сообщение

leon030982

[] 

Реаниматор
Re-Animator


Страна: США
Жанр: ужасы, фантастика
Год выпуска: 1985
Продолжительность: 01:25:46
Перевод: Профессиональный (многоголосый закадровый) + авторский (одноголосый закадровый)
Оригинальная аудиодорожка: отсутствует
Cубтитры: отсутствуют
Режиссер: Стюарт Гордон / Stuart Gordon
В ролях: Джеффри Комбс, Брюс Эбботт, Барбара Крэмптон, Дэвид Гэйл, Роберт Сэмпсон, Джерри Блэк, Кэролин Пёрди-Гордон, Питер Кент, Barbara Pieters, Йен Патрик Уильямс
Описание: Ассистент гениального ученого приезжает в американский колледж, чтобы продолжить эксперименты по созданию сыворотки для оживления покойников. Он снимает комнату у студента-отличника и они вместе, в тайне от всех, начинают экспериментировать с живительным веществом. И мертвые действительно поднимаются! Но при этом сеют разрушение и смерть...

Качество видео: BDRip-AVC
Формат видео: MKV
Видео: MPEG-4 AVC, 1024x576 (16:9), 23.976 fps, ~4085 kbps, 0.289 bit/pixel
Аудио #1: Russian, Audio Coding 3, 48 kHz, DD 5.1 ch, CBR 384 kbps | многоголосый закадровый, Cinema Prestige (R5)
Аудио #2: Russian, Audio Coding 3, 48 kHz, DD 5.1 ch, CBR 384 kbps | одноголосый закадровый, Гаврилов


---[NoImage] x264 [info]: frame I:747 Avg QP:16.56 size: 75704
---[NoImage] x264 [info]: frame P:21664 Avg QP:19.11 size: 33009
---[NoImage] x264 [info]: frame B:100946 Avg QP:20.59 size: 18372
---[NoImage] x264 [info]: consecutive B-frames: 1.0% 0.9% 2.6% 17.6% 9.2% 29.0% 7.5% 21.2% 3.1% 1.9% 1.2% 3.7% 1.0%
---[NoImage] x264 [info]: mb I I16..4: 4.0% 82.7% 13.3%
---[NoImage] x264 [info]: mb P I16..4: 0.3% 16.6% 1.3% P16..4: 29.7% 36.1% 12.1% 0.0% 0.0% skip: 3.8%
---[NoImage] x264 [info]: mb B I16..4: 0.0% 3.1% 0.1% B16..8: 41.6% 25.0% 4.4% direct: 9.7% skip:16.1% L0:48.3% L1:41.8% BI: 9.9%
---[NoImage] x264 [info]: 8x8 transform intra:92.5% inter:57.7%
---[NoImage] x264 [info]: direct mvs spatial:99.3% temporal:0.7%
---[NoImage] x264 [info]: coded y,uvDC,uvAC intra: 97.7% 85.5% 61.0% inter: 52.1% 37.7% 4.6%
---[NoImage] x264 [info]: i16 v,h,dc,p: 29% 17% 9% 45%
---[NoImage] x264 [info]: i8 v,h,dc,ddl,ddr,vr,hd,vl,hu: 9% 6% 8% 11% 15% 15% 11% 13% 12%
---[NoImage] x264 [info]: i4 v,h,dc,ddl,ddr,vr,hd,vl,hu: 11% 6% 4% 9% 16% 19% 12% 13% 10%
---[NoImage] x264 [info]: i8c dc,h,v,p: 47% 19% 17% 17%
---[NoImage] x264 [info]: Weighted P-Frames: Y:7.9% UV:2.7%
---[NoImage] x264 [info]: ref P L0: 39.1% 5.7% 17.4% 9.2% 6.8% 5.4% 4.4% 2.7% 2.2% 1.9% 1.6% 1.4% 1.2% 0.9% 0.1% 0.0%
---[NoImage] x264 [info]: ref B L0: 58.4% 15.4% 8.4% 4.7% 3.5% 2.7% 2.2% 1.4% 1.1% 0.9% 0.8% 0.4% 0.1%
---[NoImage] x264 [info]: ref B L1: 88.6% 11.4%
---[NoImage] x264 [info]: kb/s:4083.55
General
Unique ID : 251423562404128035329958092557184620509 (0xBD266AB0831F01F9996EE86F745357DD)
Complete name : re-animator.mkv
Format : Matroska
Format version : Version 2
File size : 2.91 GiB
Duration : 1h 25mn
Overall bit rate : 4 853 Kbps
Encoded date : UTC 2012-09-21 09:28:35
Writing application : mkvmerge v5.6.0 ('Kenya Kane') built on May 27 2012 16:44:04
Writing library : libebml v1.2.3 + libmatroska v1.3.0
Video
ID : 1
Format : AVC
Format/Info : Advanced Video Codec
Format profile : High@L4.1
Format settings, CABAC : Yes
Format settings, ReFrames : 14 frames
Codec ID : V_MPEG4/ISO/AVC
Duration : 1h 25mn
Bit rate : 4 085 Kbps
Width : 1 024 pixels
Height : 576 pixels
Display aspect ratio : 16:9
Frame rate : 23.976 fps
Color space : YUV
Chroma subsampling : 4:2:0
Bit depth : 8 bits
Scan type : Progressive
Bits/(Pixel*Frame) : 0.289
Stream size : 2.39 GiB (82%)
Title : Re-Animator (1985)
Writing library : x264 core 125 r2200 999b753
Encoding settings : cabac=1 / ref=14 / deblock=1:-1:-1 / analyse=0x3:0x113 / me=umh / subme=11 / psy=1 / psy_rd=1.00:0.15 / mixed_ref=1 / me_range=32 / chroma_me=1 / trellis=2 / 8x8dct=1 / cqm=0 / deadzone=21,11 / fast_pskip=0 / chroma_qp_offset=-3 / threads=12 / lookahead_threads=2 / sliced_threads=0 / nr=0 / decimate=1 / interlaced=0 / bluray_compat=0 / constrained_intra=0 / bframes=12 / b_pyramid=2 / b_adapt=2 / b_bias=0 / direct=3 / weightb=1 / open_gop=0 / weightp=2 / keyint=240 / keyint_min=23 / scenecut=40 / intra_refresh=0 / rc_lookahead=40 / rc=2pass / mbtree=1 / bitrate=4085 / ratetol=1.0 / qcomp=0.70 / qpmin=10 / qpmax=51 / qpstep=4 / cplxblur=20.0 / qblur=0.5 / ip_ratio=1.40 / aq=2:1.00
Language : English
Default : Yes
Forced : No
Audio #1
ID : 2
Format : AC-3
Format/Info : Audio Coding 3
Mode extension : CM (complete main)
Format settings, Endianness : Big
Codec ID : A_AC3
Duration : 1h 25mn
Bit rate mode : Constant
Bit rate : 384 Kbps
Channel(s) : 6 channels
Channel positions : Front: L C R, Side: L R, LFE
Sampling rate : 48.0 KHz
Bit depth : 16 bits
Compression mode : Lossy
Stream size : 236 MiB (8%)
Title : MVO (Cinema Prestige)
Language : Russian
Default : Yes
Forced : No
Audio #2
ID : 3
Format : AC-3
Format/Info : Audio Coding 3
Mode extension : CM (complete main)
Format settings, Endianness : Big
Codec ID : A_AC3
Duration : 1h 25mn
Bit rate mode : Constant
Bit rate : 384 Kbps
Channel(s) : 6 channels
Channel positions : Front: L C R, Side: L R, LFE
Sampling rate : 48.0 KHz
Bit depth : 16 bits
Compression mode : Lossy
Stream size : 236 MiB (8%)
Title : AVO (Гаврилов)
Language : Russian
Default : No
Forced : No
Menu
00:00:00.000 : en:00:00:00.000
00:09:26.190 : en:00:09:26.190
00:24:13.827 : en:00:24:13.827
00:30:29.452 : en:00:30:29.452
00:32:21.022 : en:00:32:21.022
00:45:55.627 : en:00:45:55.627
00:49:07.694 : en:00:49:07.694
00:57:26.192 : en:00:57:26.192
00:59:22.058 : en:00:59:22.058
01:06:24.230 : en:01:06:24.230
01:18:03.095 : en:01:18:03.095
01:21:35.724 : en:01:21:35.724



Скачать Реаниматор.Re-Animator.(Стюарт.Гордон.Stuart.Gordon).[1985.ужасы.фантастика.BDRip-AVC].[MVO].+.[AVO].(Гаврилов).torrent без регистрации
Золото ЗОЛОТАЯ РАЗДАЧА! СКАЧАННОЕ НЕ ЗАСЧИТЫВАЕТСЯ! Золото
Дата: Зарегистрирован   [ Тип: внутренний ] Как тут cкачать?
MAGNET ссылка
MAGNET ссылка


Скачать .torrent

15 KB

Статус: проверено DHT
Скачан: торрент - 130 раз, раздача полностью - 16 раз
Размер: 2,91 GB
Оценка:  5 (Голосов: 1)
Поблагодарили: 3
Поделиться ссылкой на эту раздачу с друзьями:
В контактеFacebookОдноклассникиTwitterLivejournalМой МирLiveinternet
 

 
Показать сообщения:    


Вы не можете начинать темы
Вы не можете отвечать на сообщения
Вы не можете редактировать свои сообщения
Вы не можете удалять свои сообщения
Вы не можете голосовать в опросах
Вы не можете прикреплять файлы к сообщениям
Вы можете скачивать файлы