Loading...
Error

Скачать Адское такси / Chicago Cab / Hell Cab (Мэри Цыбульски / Mary Cybulski) [1998, Драма, комедия, DVDRip-AVC] [AVO] (Ю. Сербин) торрент без регистрации

 
Статистика раздачи
Размер:  1,46 GB   |    Скачан:  152 раза
Сидов:  1  [  0 KB/s  ]  
 
Автор Сообщение

leon030982

[] 

Адское такси / Chicago Cab / Hell Cab
Страна: США
Жанр: Драма, комедия
Год выпуска: 1998
Продолжительность: 01:36:22
Перевод: Авторский (одноголосый закадровый) [Ю. Сербин][/color]
Cубтитры: нет

Режиссер: Мэри Цыбульски / Mary Cybulski

В ролях: Пол Диллон, Майкл Айронсайд, Лори Меткаф, Джон С. Рейлли, Джиллиан Андерсон, Джон Кьюсак, Джулианна Мур, Мойра Харрис, Дэррил Тирс, Шэнезия Дэвис-Уильямс, Мэтт Рот, Рон Дин, Эйприл Грэйс, Хэрри Дж. Ленникс, Кевин Дж. О'Коннор.

Описание: Обыкновенное чикагское такси может превратиться в настоящий ад. В канун Рождества несчастному водителю придется выносить приставания похотливой дамочки, спасаться от хулиганов, внимать рассказам жертвы изнасилования и крутиться по самым мрачным переулкам города с таинственным конспиратором. Причем все его пассажиры - абсолютно реальны и такое можно встретить в любом городе.

Качество видео: DVDRip
Формат видео: MKV
Видео: 688х368 (1:85:1), 1 972 kbps, 23.976 fps, 0.32 bit/pixel
Аудио: 48 kHz, AC3 Dolby Digital, 2 ch (L,R) ~192.00 kbps avg
Звуковая дорожка оцифрована с кассеты
Большое спасибо Fikaloid
General
Unique ID : 209495533799389287984531168950892317722 (0x9D9B5F46EC86582B89440B03B4674C1A)
Format : Matroska
Format version : Version 2
File size : 1.46 GiB
Duration : 1h 36mn
Overall bit rate : 2 166 Kbps
Encoded date : UTC 2012-09-21 07:40:14
Writing application : mkvmerge v5.8.0 ('No Sleep / Pillow') built on Sep 2 2012 15:37:04
Writing library : libebml v1.2.3 + libmatroska v1.3.0
Video
ID : 1
Format : AVC
Format/Info : Advanced Video Codec
Format profile : High 10@L4.1
Format settings, CABAC : Yes
Format settings, ReFrames : 4 frames
Codec ID : V_MPEG4/ISO/AVC
Duration : 1h 36mn
Bit rate : 1 972 Kbps
Width : 688 pixels
Height : 368 pixels
Display aspect ratio : 1.85:1
Frame rate mode : Constant
Frame rate : 23.976 fps
Color space : YUV
Chroma subsampling : 4:2:0
Bit depth : 10 bits
Scan type : Progressive
Bits/(Pixel*Frame) : 0.325
Stream size : 1.30 GiB (89%)
Writing library : x264 core 125 r2200 999b753
Encoding settings : cabac=1 / ref=3 / deblock=1:-1:-1 / analyse=0x3:0x113 / me=hex / subme=7 / psy=1 / psy_rd=1.00:0.15 / mixed_ref=1 / me_range=16 / chroma_me=1 / trellis=1 / 8x8dct=1 / cqm=0 / deadzone=21,11 / fast_pskip=1 / chroma_qp_offset=-3 / threads=3 / lookahead_threads=1 / sliced_threads=0 / nr=0 / decimate=1 / interlaced=0 / bluray_compat=0 / constrained_intra=0 / bframes=3 / b_pyramid=2 / b_adapt=1 / b_bias=0 / direct=1 / weightb=1 / open_gop=0 / weightp=2 / keyint=250 / keyint_min=23 / scenecut=40 / intra_refresh=0 / rc_lookahead=40 / rc=2pass / mbtree=1 / bitrate=1972 / ratetol=1.0 / qcomp=0.60 / qpmin=0 / qpmax=81 / qpstep=4 / cplxblur=20.0 / qblur=0.5 / ip_ratio=1.40 / aq=1:1.00
Language : Russian
Default : Yes
Forced : No
Audio
ID : 2
Format : AC-3
Format/Info : Audio Coding 3
Format profile : Dolby Digital
Mode extension : CM (complete main)
Format settings, Endianness : Big
Codec ID : A_AC3
Duration : 1h 36mn
Bit rate mode : Constant
Bit rate : 192 Kbps
Channel(s) : 2 channels
Channel positions : Front: L R
Sampling rate : 48.0 KHz
Bit depth : 16 bits
Compression mode : Lossy
Stream size : 132 MiB (9%)
Title : Serbin_VHS
Language : Russian
Default : Yes
Forced : No



Скачать Адское.такси.Chicago.Cab.Hell.Cab.(Мэри.Цыбульски.Mary.Cybulski).[1998.Драма.комедия.DVDRip-AVC].[AVO].(Ю.Сербин).torrent без регистрации
Золото ЗОЛОТАЯ РАЗДАЧА! СКАЧАННОЕ НЕ ЗАСЧИТЫВАЕТСЯ! Золото
Дата: Зарегистрирован   [ Тип: внутренний ] Как тут cкачать?
MAGNET ссылка
MAGNET ссылка


Скачать .torrent

15 KB

Статус: проверено DHT
Скачан: торрент - 152 раз, раздача полностью - 12 раз
Размер: 1,46 GB
Оценка:  - (Голосов: 0)
Поблагодарили: 1
Поделиться ссылкой на эту раздачу с друзьями:
В контактеFacebookОдноклассникиTwitterLivejournalМой МирLiveinternet
 

 
Показать сообщения:    


Вы не можете начинать темы
Вы не можете отвечать на сообщения
Вы не можете редактировать свои сообщения
Вы не можете удалять свои сообщения
Вы не можете голосовать в опросах
Вы не можете прикреплять файлы к сообщениям
Вы можете скачивать файлы