Loading...
Error

Скачать Кости / Bones (сезог 08) (Стивен ДеПол, Йен Тойнтон, Аллен Крокер) [2012, драма, детектив, WEB-DLRip] [1080p] [MVO (BaibaKo)] торрент без регистрации

 
Статистика раздачи
Размер:  42,08 GB   |    Скачан:  160 раз
Сидов:  1  [  0 KB/s  ]  
 
Автор Сообщение

МихаНЕзатор

[] 

Название: Кости
Оригинальное название: Bones
Год выпуска: 2012
Жанр: драма, детектив
Режиссер: Иэн Тойнтон
В ролях: Эмили Дешанель, Дэвид Бореаназ, Микаэла Конлин, Тамара Тэйлор, Томас Джозеф Тайн, Джон Фрэнсис Дэйли и др.

Описание: Доктор Темперанс Бреннан, блестящий, но одинокий антрополог получает то, чего она меньше всего желала напарника. Бюро посылает ей амбициозного агента ФБР Сили Бута, чтобы помочь в расследовании нераскрытых дел путем изучения и идентификации костей давно пропавших людей.

Но давно умершие жертвы не единственное, с чем придется столкнуться Боунс, Буту и их команде, раскрывая преступления они часто сталкиваются с взяточничеством, коррупцией и местной разрозненностью.

Страна: США
Продолжительность: 16 x ~ 00:45:00
Перевод: Профессиональный (многоголосый, закадровый) - Baibako
Субтитры: Английские

Перевод: Lub_a
Озвучка: Лира Грим, Светлана Доманова, Татьяна Оболевич, Руслан Иванов и Алексей Кузнецов
Монтаж: Vitall Digitall
Обложка: tvblog
Синхронизация звука и субтитров: Pulsar83

Качество: WEB-DLRip 1080p
Формат: МКV
Видео: MPEG-4 AVC, ~ 5000 Кбит/с, 1912x1072
Аудио rus: AC3, 6 ch, 384 Кбит/с
Аудио eng: AC3, 6 ch, 384 Кбит/с

Релиз от:

18.07.2013 г. торент обновлён, добавлена 23-24 серия, сезон полностью!

01. Будущее в прошлом / The Future in the Past
02. Партнеры в разводе / The Partners in the Divorce
03. Месиво в гараже / The Gunk in the Garage
04. Тигр в сказке / The Tiger In The Tale
05. Метод на грани безумия / Method to the Madness
06. Патриот в чистилище / The Patriot in Purgatory
07. Гуманоид в коконе / The Bod in the Pod
08. Шутка, но всерьез / The But in the Joke
09. Призрак в машине / Ghost in the Machine
10. Алмаз неограненый / The Diamond in the Rough
11. Археолог в коконе / The Archaeologist in the Cocoon
12. Труп над кроватью / The Corpse on the Canopy
13 The Twist In The Plot / Поворот сюжета
14. Кукла в Дерби / The Doll in the Derby
15. Выстрел в темноте / The Shot in the Dark
16. Друг в беде / The Friend in Need
17. Фантастический факт / The Fact in the Fiction
18. The Survivor in the Soap
19. The Doom in the Gloom
20. The Blood from the Stones
21. The Maiden in the Mushrooms
22. The Party in the Pants
23. Пафос в патогенах / The Pathos in the Pathogens
24. Секрет в осаде / The Secret in the Siege
General
Unique ID : 182147408451506121726803357463687420432 (0x890850983C475D26AEF7DFCF3BF75A10)
Complete name : E:КИНОСериалыBones.s08.HD1080p.WEB-DL.Rus-Eng.BaibaKo.tvBones.s08e01.HD1080p.WEB-DL.Rus-Eng.BaibaKo.tv.mkv
Format : Matroska
Format version : Version 2
File size : 1.72 GiB
Duration : 43mn 49s
Overall bit rate : 5 627 Kbps
Movie name : BaibaKo.tv presents - Кости 8х01 Будущее в прошлом
Encoded date : UTC 2012-11-10 06:26:41
Writing application : mkvmerge v5.8.0 ('No Sleep / Pillow') built on Sep 2 2012 15:37:04
Writing library : libebml v1.2.3 + libmatroska v1.3.0
Video #1
ID : 1
Format : AVC
Format/Info : Advanced Video Codec
Format profile : High@L4.0
Format settings, CABAC : Yes
Format settings, ReFrames : 4 frames
Muxing mode : Header stripping
Codec ID : V_MPEG4/ISO/AVC
Duration : 43mn 49s
Bit rate : 4 747 Kbps
Width : 1 912 pixels
Height : 1 072 pixels
Display aspect ratio : 16:9
Frame rate : 23.976 fps
Color space : YUV
Chroma subsampling : 4:2:0
Bit depth : 8 bits
Scan type : Progressive
Bits/(Pixel*Frame) : 0.095
Stream size : 1.45 GiB (84%)
Title : WEB-DL (1080p) ENG
Language : English
Default : Yes
Forced : No
Color primaries : BT.709-5, BT.1361, IEC 61966-2-4, SMPTE RP177
Transfer characteristics : BT.709-5, BT.1361
Matrix coefficients : BT.709-5, BT.1361, IEC 61966-2-4 709, SMPTE RP177
Audio #2
ID : 2
Format : AC-3
Format/Info : Audio Coding 3
Mode extension : CM (complete main)
Format settings, Endianness : Big
Muxing mode : Header stripping
Codec ID : A_AC3
Duration : 43mn 49s
Bit rate mode : Constant
Bit rate : 384 Kbps
Channel(s) : 6 channels
Channel positions : Front: L C R, Side: L R, LFE
Sampling rate : 48.0 KHz
Bit depth : 16 bits
Compression mode : Lossy
Delay relative to video : 27ms
Stream size : 120 MiB (7%)
Title : Rus BaibaKo.tv DD5.1
Language : Russian
Default : Yes
Forced : Yes
Audio #3
ID : 3
Format : AC-3
Format/Info : Audio Coding 3
Mode extension : CM (complete main)
Format settings, Endianness : Big
Muxing mode : Header stripping
Codec ID : A_AC3
Duration : 43mn 49s
Bit rate mode : Constant
Bit rate : 384 Kbps
Channel(s) : 6 channels
Channel positions : Front: L C R, Side: L R, LFE
Sampling rate : 48.0 KHz
Bit depth : 16 bits
Compression mode : Lossy
Delay relative to video : 27ms
Stream size : 120 MiB (7%)
Title : Eng DD5.1
Language : English
Default : No
Forced : No
Text #4
ID : 4
Format : UTF-8
Codec ID : S_TEXT/UTF8
Codec ID/Info : UTF-8 Plain Text
Language : English
Default : No
Forced : No



Скачать Кости.Bones.(сезог.08).(Стивен.ДеПол.Йен.Тойнтон.Аллен.Крокер).[2012.драма.детектив.WEB-DLRip].[1080p].[MVO.(BaibaKo)].torrent без регистрации
Золото ЗОЛОТАЯ РАЗДАЧА! СКАЧАННОЕ НЕ ЗАСЧИТЫВАЕТСЯ! Золото
Дата: Зарегистрирован   [ Тип: внутренний ] Как тут cкачать?
MAGNET ссылка
MAGNET ссылка


Скачать .torrent

108 KB

Статус: проверено DHT
Скачан: торрент - 160 раз, раздача полностью - 2 раз
Размер: 42,08 GB
Оценка:  5 (Голосов: 3)
Поблагодарили: 3
Поделиться ссылкой на эту раздачу с друзьями:
В контактеFacebookОдноклассникиTwitterLivejournalМой МирLiveinternet
 

 

МихаНЕзатор

[] 

Раздача обновлена.
 
Показать сообщения:    


Вы не можете начинать темы
Вы не можете отвечать на сообщения
Вы не можете редактировать свои сообщения
Вы не можете удалять свои сообщения
Вы не можете голосовать в опросах
Вы не можете прикреплять файлы к сообщениям
Вы можете скачивать файлы