Loading...
Error

Скачать Гибель Японии / Nippon chinbotsu / Submersion of Japan (Сиро Моритами) [1973, фантастика, триллер, драма, DVDRip-AVC] [Dub]+[VO] торрент без регистрации

 
Статистика раздачи
Размер:  3,21 GB   |    Скачан:  132 раза
Сидов:  1  [  0 KB/s  ]  
 
Автор Сообщение

Marsianka

[] 

Информация о фильме:
Название: Гибель Японии
Оригинальное название: Nippon chinbotsu / Submersion of Japan
Год выхода: 1973
Жанр: фантастика, триллер, драма
Режиссер: Сиро Моритами
В ролях: Кэйдзю Кобаяси, Хироси Фудзиока, Тэцуро Танба, Аюми Исида, Сёго Симада, Джон Фудзиока, Эндрю Хьюз, Нобуо Накамура и др.
О фильме Сюжет фильма-катастрофы построен на предположении, что в будущем Японии грозит погружение в океан, ввиду неизбежных тектонических процессов, происходящих в земной коре. В ходе научной экспедиции, изучающей подводные тектонические разломы, ученые понимают, что должна случиться катастрофа, которая приведет к гибели Японии.
Один из ученых, несмотря на риск потерять свой авторитет, предупреждает о сделанном открытии и возможной катастрофе правительство и предлагает подготовить население страны к возможной эвакуации. Однако, никто не прислушивается к его словам




Страна: Япония
Продолжительность: 02:23:26
Перевод: Профессиональный ( дублированный) с частичными вставками одноголосого + Любительский (одноголосый) /ST VIDEO/

Качество: DVDRip
Формат: MKV
Видео: MPEG4 AVC, 2300 Кбит/с, 720х400, 29,970 кадр/сек
Аудио 1: АС3, 2 ch, 448 Кбит/с, 48 kHz Профессиональный ( дублированный) с частичными вставками одноголосого
Аудио 2: АС3, 2 ch, 448 Кбит/с, 48 kHz Любительский (одноголосый) /ST VIDEO/

Общее
Уникальный идентификатор : 174511640228073899983198586092682048475 (0x8349B827B5F3C13ABF34942BDD8173DB)
Полное имя : D:Гибель Японии.mkv
Формат : Matroska
Версия формата : Version 2
Размер файла : 3,21 Гбайт
Продолжительность : 2 ч. 23 м.
Общий поток : 3198 Кбит/сек
Дата кодирования : UTC 2012-09-20 18:02:49
Программа кодирования : mkvmerge v3.3.0 ('Language') сборка от May 14 2010 17:11:50
Библиотека кодирования : XviD4PSP 6.0 / 53.6.0

Видео
Идентификатор : 1
Формат : AVC
Формат/Информация : Advanced Video Codec
Профиль формата : High@L4.1
Параметр CABAC формата : Да
Параметр ReFrames формата : 3 кадра
Идентификатор кодека : V_MPEG4/ISO/AVC
Продолжительность : 2 ч. 23 м.
Битрейт : 2300 Кбит/сек
Ширина : 720 пикс.
Высота : 400 пикс.
Соотношение сторон : 2,2:1
Соотношение сторон в оригинале : 2,2:1
Режим частоты кадров : Переменный
Частота кадров : 29,970 кадр/сек
Цветовое пространство : YUV
Подвыборка цветности : 4:2:0
Битовая глубина : 8 бит
Тип развёртки : Прогрессивная
Бит/(Пиксели*Кадры) : 0.266
Размер потока : 2,24 Гбайт (70%)
Библиотека кодирования : x264 core 116 r2019M 9cc407d
Настройки программы : cabac=1 / ref=3 / deblock=1:0:0 / analyse=0x3:0x133 / me=hex / subme=7 / psy=1 / psy_rd=1.00:0.20 / mixed_ref=1 / me_range=16 / chroma_me=1 / trellis=1 / 8x8dct=1 / cqm=0 / deadzone=21,11 / fast_pskip=1 / chroma_qp_offset=-3 / threads=8 / sliced_threads=0 / nr=0 / decimate=1 / interlaced=0 / bluray_compat=0 / constrained_intra=0 / bframes=3 / b_pyramid=1 / b_adapt=2 / b_bias=0 / direct=3 / weightb=1 / open_gop=0 / weightp=2 / keyint=290 / keyint_min=29 / scenecut=40 / intra_refresh=0 / rc_lookahead=40 / rc=2pass / mbtree=1 / bitrate=2300 / ratetol=1.0 / qcomp=0.60 / qpmin=10 / qpmax=51 / qpstep=4 / cplxblur=20.0 / qblur=0.5 / ip_ratio=1.40 / aq=1:1.00

Аудио #1
Идентификатор : 2
Формат : AC-3
Формат/Информация : Audio Coding 3
Расширение режима : CM (complete main)
Идентификатор кодека : A_AC3
Продолжительность : 2 ч. 23 м.
Вид битрейта : Постоянный
Битрейт : 448 Кбит/сек
Каналы : 2 канала
Расположение каналов : Front: L R
Частота : 48,0 КГц
Битовая глубина : 16 бит
Метод сжатия : С потерями
Размер потока : 460 Мбайт (14%)

Аудио #2
Идентификатор : 3
Формат : AC-3
Формат/Информация : Audio Coding 3
Расширение режима : CM (complete main)
Идентификатор кодека : A_AC3
Продолжительность : 2 ч. 23 м.
Вид битрейта : Постоянный
Битрейт : 448 Кбит/сек
Каналы : 2 канала
Расположение каналов : Front: L R
Частота : 48,0 КГц
Битовая глубина : 16 бит
Метод сжатия : С потерями
Размер потока : 460 Мбайт (14%)



Скачать Гибель.Японии.Nippon.chinbotsu.Submersion.of.Japan.(Сиро.Моритами).[1973.фантастика.триллер.драма.DVDRip-AVC].[Dub]+[VO].torrent без регистрации
Золото ЗОЛОТАЯ РАЗДАЧА! СКАЧАННОЕ НЕ ЗАСЧИТЫВАЕТСЯ! Золото
Дата: Зарегистрирован   [ Тип: внутренний ] Как тут cкачать?
MAGNET ссылка
MAGNET ссылка


Скачать .torrent

17 KB

Статус: проверено DHT
Скачан: торрент - 132 раз, раздача полностью - 18 раз
Размер: 3,21 GB
Оценка:  - (Голосов: 0)
Поблагодарили: 1
Поделиться ссылкой на эту раздачу с друзьями:
В контактеFacebookОдноклассникиTwitterLivejournalМой МирLiveinternet
 

 
Показать сообщения:    


Вы не можете начинать темы
Вы не можете отвечать на сообщения
Вы не можете редактировать свои сообщения
Вы не можете удалять свои сообщения
Вы не можете голосовать в опросах
Вы не можете прикреплять файлы к сообщениям
Вы можете скачивать файлы