Loading...
Error

Скачать Последний провод / The Final Cut (Роджер Кристиан / Roger Christian) [1996 г., Боевик, триллер, детектив, DVDRip] [AVO] (Визгунов) торрент без регистрации

 
Статистика раздачи
Размер:  1,34 GB   |    Скачан:  114 раз
Сидов:  1  [  0 KB/s  ]  
 
Автор Сообщение

leon030982

[] 

Последний провод / The Final Cut


Год выпуска: 1996
Страна: США, Канада
Жанр: Боевик, триллер, детектив
Продолжительность: 01:36:00
Перевод: Авторский (одноголосый закадровый) Визгунов
Оригинальная дорожка: нет
Cубтитры: нет
Режиссер: Роджер Кристиан / Roger Christian
В ролях: Сэм Эллиотт, Чарльз Мартин Смит, Келли Бенсон, Энн Рэмси, Ллойд Берри, Мэтт Крэвен, Рэй Бэйкер, Фрэнк Кассини, Барбара Тайсон
Описание: Сапер ошибается только один раз, и работа у него в наше время не приведи каждому. Каждый день мы читаем в газетах о взрывах по всему миру. И кто же соглашается идти на такую работу? В этом очень удачном триллере кое-что проясняется. Эти люди особенные. Один из них, например, стал устанавливать настолько сложные и хитрые взрывные устройства, что многие из его коллег погибли, прежде чем отставной сапер (Сэм Эллиотт) "вычислил" автора, успев уже, правда, сам попасть под подозрение. Помогает ему в этом красивая девушка, работающая в этой опаснейшей службе.


Качество видео: DVDRip
Формат видео: AVI
Видео: 704x528 (4:3), 25 fps, DivX5 ~1800 kbps avg, 0.19 bit/pixel
Аудио : 48 kHz, AC3 Dolby Digital, 2/0 (L,R) ch, ~192.00 kbps avg
Общее
Полное имя : E:\Последний провод (1995) Визгунов.avi
Формат : AVI
Формат/Информация : Audio Video Interleave
Размер файла : 1,34 Гбайт
Продолжительность : 1 ч. 36 м.
Общий поток : 2001 Кбит/сек
Программа кодирования : VirtualDubMod 1.5.10.2 (build 2540/release)
Библиотека кодирования : VirtualDubMod build 2540/release
Видео
Идентификатор : 0
Формат : MPEG-4 Visual
Профиль формата : Advanced Simple@L5
Параметр BVOP формата : 1
Параметр QPel формата : Нет
Параметр GMC формата : Без точки перехода
Параметр матрицы формата : Default (H.263)
Идентификатор кодека : DX50
Идентификатор кодека/Подсказка : DivX 5
Продолжительность : 1 ч. 36 м.
Битрейт : 1800 Кбит/сек
Ширина : 704 пикселя
Высота : 528 пикселей
Соотношение сторон : 4:3
Частота кадров : 25,000 кадров/сек
Цветовое пространство : YUV
Субдискретизация насыщенности : 4:2:0
Битовая глубина : 8 бит
Тип развёртки : Прогрессивная
Метод сжатия : С потерями
Бит/(Пиксели*Кадры) : 0.194
Размер потока : 1,21 Гбайт (90%)
Библиотека кодирования : XviD 1.2.1 (UTC 2008-12-04)
Аудио
Идентификатор : 1
Формат : AC-3
Формат/Информация : Audio Coding 3
Расширение режима : CM (complete main)
Идентификатор кодека : 2000
Продолжительность : 1 ч. 35 м.
Вид битрейта : Постоянный
Битрейт : 192 Кбит/сек
Каналы : 2 канала
Расположение каналов : Front: L R
Частота : 48,0 КГц
Битовая глубина : 16 бит
Метод сжатия : С потерями
Размер потока : 132 Мбайт (10%)
Выравнивание : Разделение по промежуткам
Продолжительность промежутка : 40 мс. (1,00 видеокадр)
Время предзагрузки промежутка : 500 мс.



Скачать Последний.провод.The.Final.Cut.(Роджер.Кристиан.Roger.Christian).[1996.г.Боевик.триллер.детектив.DVDRip].[AVO].(Визгунов).torrent без регистрации
Золото ЗОЛОТАЯ РАЗДАЧА! СКАЧАННОЕ НЕ ЗАСЧИТЫВАЕТСЯ! Золото
Дата: Зарегистрирован   [ Тип: внутренний ] Как тут cкачать?
MAGNET ссылка
MAGNET ссылка


Скачать .torrent

14 KB

Статус: проверено DHT
Скачан: торрент - 114 раз, раздача полностью - 5 раз
Размер: 1,34 GB
Оценка:  5 (Голосов: 1)
Поблагодарили: 1
Поделиться ссылкой на эту раздачу с друзьями:
В контактеFacebookОдноклассникиTwitterLivejournalМой МирLiveinternet
 

 
Показать сообщения:    


Вы не можете начинать темы
Вы не можете отвечать на сообщения
Вы не можете редактировать свои сообщения
Вы не можете удалять свои сообщения
Вы не можете голосовать в опросах
Вы не можете прикреплять файлы к сообщениям
Вы можете скачивать файлы