Loading...
Error

Скачать Привет, дуралеи! (Эльдар Рязанов) [1996, лирическая комедия, DVDRip] торрент без регистрации

 
Статистика раздачи
Размер:  2,19 GB   |    Скачан:  137 раз
Сидов:  1  [  0 KB/s  ]  
 
Автор Сообщение

МихаНЕзатор

[] 

Год выпуска: 1996
Жанр: лирическая комедия
Продолжительность: 01:51:50

Режиссер: Эльдар Рязанов

В ролях: Вячеслав Полунин, Татьяна Друбич, Татьяна Догилева, Борис Щербаков, Александр Ширвиндт, Ольга Волкова, Вячеслав Кулаков, Александр Пашутин, Андрей Смоляков, Сергей Степанченко, Анатолий Руденко, Руслан Ахметов, Алексей Булдаков, Эльдар Рязанов, Ян Цапник, Павел Лебешев, Агриппина Стеклова

Описание: В многомиллионном городе встретились два человека и с первого взгляда почувствовали необъяснимое притяжение друг к другу, обычно называемое любовью. Комедия с героем-неудачником и слепнущей героиней история абсолютно чистая и трогательная, без политики, крови, насилия. Суть ее сводится к простой формуле: все мы родные, все мы обречены встречаться друг с другом снова и снова. И чем больше любви и тепла мы отдадим сегодня тому, кто рядом, тем светлее и радостней будет следующая встреча.

Качество: DVDRip
Формат: AVI

Видео: 704x528 (1.33:1), 25 fps, XviD build 65 ~2348 kbps avg, 0.25 bit/pixel
Аудио: 48 kHz, AC3 Dolby Digital, 3/2 (L,C,R,l,r) + LFE ch, 448.00 kbps avg


Complete name : Privet.duralei.1996.DVDRip.XviD_2.19_Olu6ka.avi
Format : AVI
Format/Info : Audio Video Interleave
Format profile : OpenDML
File size : 2.19 GiB
Duration : 1h 51mn
Overall bit rate : 2 803 Kbps
Writing application : FairUse Wizard
Copyright : Olu6ka

Video
ID : 0
Format : MPEG-4 Visual
Format profile : Advanced Simple@L5
Format settings, BVOP : Yes
Format settings, QPel : No
Format settings, GMC : No warppoints
Format settings, Matrix : Custom
Codec ID : XVID
Codec ID/Hint : XviD
Duration : 1h 51mn
Bit rate : 2 343 Kbps
Width : 704 pixels
Height : 528 pixels
Display aspect ratio : 4:3
Frame rate : 25.000 fps
Color space : YUV
Chroma subsampling : 4:2:0
Bit depth : 8 bits
Scan type : Progressive
Bits/(Pixel*Frame) : 0.252
Stream size : 1.83 GiB (84%)
Writing library : XviD 65

Audio
ID : 1
Format : AC-3
Format/Info : Audio Coding 3
Mode extension : CM (complete main)
Codec ID : 2000
Duration : 1h 51mn
Bit rate mode : Constant
Bit rate : 448 Kbps
Channel(s) : 5 channels
Channel positions : Front: L C R, Side: L R
Sampling rate : 48.0 KHz
Bit depth : 16 bits
Stream size : 358 MiB (16%)
Alignment : Split accross interleaves
Interleave, duration : 40 ms (1.00 video frame)
Interleave, preload duration : 500 ms



Скачать Привет.дуралеи!.(Эльдар.Рязанов).[1996.лирическая.комедия.DVDRip].torrent без регистрации
Золото ЗОЛОТАЯ РАЗДАЧА! СКАЧАННОЕ НЕ ЗАСЧИТЫВАЕТСЯ! Золото
Дата: Зарегистрирован   [ Тип: внутренний ] Как тут cкачать?
MAGNET ссылка
MAGNET ссылка


Скачать .torrent

11 KB

Статус: проверено DHT
Скачан: торрент - 137 раз, раздача полностью - 124 раз
Размер: 2,19 GB
Оценка:  - (Голосов: 0)
Поблагодарили: 1
Поделиться ссылкой на эту раздачу с друзьями:
В контактеFacebookОдноклассникиTwitterLivejournalМой МирLiveinternet
 

 
Показать сообщения:    


Вы не можете начинать темы
Вы не можете отвечать на сообщения
Вы не можете редактировать свои сообщения
Вы не можете удалять свои сообщения
Вы не можете голосовать в опросах
Вы не можете прикреплять файлы к сообщениям
Вы можете скачивать файлы