Loading...
Error

Скачать О любви (Михаил Богин) [1970, драма, мелодрама, DVDRip] торрент без регистрации

 
Статистика раздачи
Размер:  1,09 GB   |    Скачан:  141 раз
Сидов:  1  [  0 KB/s  ]  
 
Автор Сообщение

МихаНЕзатор

[] 

Жанр: драма, мелодрама
Год выпуска: 1970
Продолжительность: 01:12:39

Режиссер: Михаил Богин

В ролях: Виктория Фёдорова, Сергей Дрейден, Элеонора Шашкова, Владимир Тихонов, Олег Янковский, Валентин Гафт, Биби Андерсон, Геннадий Мастеров, Станислав Чуркин, Игорь Комаров, Екатерина Богина, Людмила (Мила) Васютинская, Дима Савенков

Описание:
Фильм - размышление о любви. Героиня картины, умная, привлекательная женщина, работает скульптором в Эрмитаже, занимаясь реставрацией в Царскосельском дворце. Вокруг неё много приятных и симпатичных людей. Они ходят на работу, встречаются, здороваются, пьют молоко во время обеда, ходят гулять, ведут разговоры о том, что дворец будет отреставрирован, а их имена никто и знать не будет. Вокруг все любят друг друга, а она всё ждёт любви, ждёт настоящего чувства, отказываясь от случайных встреч и возможного замужества...


Исходник: DVD5
Тип релиза: DVDRip
Контейнер: AVI

Видео: 688x384 (1.79:1), 25 fps, XviD MPEG-4 ~1953 kbps avg, 0.29 bit/pixel
Аудио: 48 kHz, AC3 Dolby Digital, 2/0 (L,R) ch, ~192 kbps


Complete name : O.Lubvi.DVDRip.XviD.AC3_Olu6ka.avi
Format : AVI
Format/Info : Audio Video Interleave
File size : 1.09 GiB
Duration : 1h 12mn
Overall bit rate : 2 156 Kbps
Movie name : O.Lubvi.DVDRip.XviD.AC3_Olu6ka
Writing application : FairUse Wizard

Video
ID : 0
Format : MPEG-4 Visual
Format profile : Advanced Simple@L5
Format settings, BVOP : Yes
Format settings, QPel : No
Format settings, GMC : No warppoints
Format settings, Matrix : Custom
Codec ID : XVID
Codec ID/Hint : XviD
Duration : 1h 12mn
Bit rate : 1 954 Kbps
Width : 688 pixels
Height : 384 pixels
Display aspect ratio : 16:9
Frame rate : 25.000 fps
Color space : YUV
Chroma subsampling : 4:2:0
Bit depth : 8 bits
Scan type : Progressive
Bits/(Pixel*Frame) : 0.296
Stream size : 1 016 MiB (91%)
Writing library : XviD 65

Audio
ID : 1
Format : AC-3
Format/Info : Audio Coding 3
Mode extension : CM (complete main)
Codec ID : 2000
Duration : 1h 12mn
Bit rate mode : Constant
Bit rate : 192 Kbps
Channel(s) : 2 channels
Channel positions : Front: L R
Sampling rate : 48.0 KHz
Bit depth : 16 bits
Stream size : 99.8 MiB (9%)
Alignment : Split accross interleaves
Interleave, duration : 40 ms (1.00 video frame)
Interleave, preload duration : 500 ms



Скачать О.любви.(Михаил.Богин).[1970.драма.мелодрама.DVDRip].torrent без регистрации
Золото ЗОЛОТАЯ РАЗДАЧА! СКАЧАННОЕ НЕ ЗАСЧИТЫВАЕТСЯ! Золото
Дата: Зарегистрирован   [ Тип: внутренний ] Как тут cкачать?
MAGNET ссылка
MAGNET ссылка


Скачать .torrent

11 KB

Статус: проверено DHT
Скачан: торрент - 141 раз, раздача полностью - 71 раз
Размер: 1,09 GB
Оценка:  - (Голосов: 0)
Поблагодарили: 1
Поделиться ссылкой на эту раздачу с друзьями:
В контактеFacebookОдноклассникиTwitterLivejournalМой МирLiveinternet
 

 
Показать сообщения:    


Вы не можете начинать темы
Вы не можете отвечать на сообщения
Вы не можете редактировать свои сообщения
Вы не можете удалять свои сообщения
Вы не можете голосовать в опросах
Вы не можете прикреплять файлы к сообщениям
Вы можете скачивать файлы