Loading...
Error

Скачать Пистолет Страдивари (Алексей Луканев) [2009, криминал, приключения, HDTVRip] торрент без регистрации

 
Статистика раздачи
Размер:  1,4 GB   |    Скачан:  157 раз
Сидов:  1  [  0 KB/s  ]  
 
Автор Сообщение

МихаНЕзатор

[] 

Год выпуска: 2009
Жанр: криминал, приключения
Страна: Россия, Украина
Выпущено: "А-1 КИНО ВИДЕО" при участии Одесской киностудии
Продолжительность: 01:16:31
Режиссер: Алексей Луканев

В ролях: Алексей Горбунов, Екатерина Маликова, Артем Осипов, Евгения Трофимова, Эммануил Виторган, Константин Крюков, Григорий Сиятвинда, Георгий Поволоцкий...
Описание:
Одесский воротила Марфела шантажом заставляет приезжего парня Никиту взяться за работу, которую считает сплошным удовольствием: нужно скомпрометировать его жену, чтобы Марфела мог развестись и без потерь единолично унаследовать миллиарды своего умирающего брата. Никита соблазняет женщину, но получает от нее встречное предложение: Елена просит убить тирана-мужа. Марфела тоже требует ликвидации коварной жены. Оба супруга осыпают Никиту угрозами, не ведая, что он вовсе не тот, за кого себя выдаёт

Исходник: pistolet.stradivari.2009.x264.HDTV.(1080p)
Тип релиза: HDTVRip
Контейнер: AVI

Видео: 720x400 (1.80:1), 25 fps, XviD build 65 ~2394 kbps avg, 0.33 bit/pixel
Аудио: 48 kHz, AC3 Dolby Digital, 2/0 (L,R) ch, ~224 kbps


Complete name : Pistolet.stradivari.2009.HDTV.(1080p)_Olu6ka.avi
Format : AVI
Format/Info : Audio Video Interleave
File size : 1.40 GiB
Duration : 1h 16mn
Overall bit rate : 2 629 Kbps
Writing application : VirtualDubMod 1.5.10.3 | (build 2550/release)
Writing library : VirtualDubMod build 2550/release

Video
ID : 0
Format : MPEG-4 Visual
Format profile : Advanced Simple@L5
Format settings, BVOP : Yes
Format settings, QPel : No
Format settings, GMC : No warppoints
Format settings, Matrix : Custom
Codec ID : XVID
Codec ID/Hint : XviD
Duration : 1h 16mn
Bit rate : 2 395 Kbps
Width : 720 pixels
Height : 400 pixels
Display aspect ratio : 16:9
Frame rate : 25.000 fps
Color space : YUV
Chroma subsampling : 4:2:0
Bit depth : 8 bits
Scan type : Progressive
Bits/(Pixel*Frame) : 0.333
Stream size : 1.28 GiB (91%)
Writing library : XviD 65

Audio
ID : 1
Format : AC-3
Format/Info : Audio Coding 3
Mode extension : CM (complete main)
Codec ID : 2000
Duration : 1h 16mn
Bit rate mode : Constant
Bit rate : 224 Kbps
Channel(s) : 2 channels
Channel positions : Front: L R
Sampling rate : 48.0 KHz
Bit depth : 16 bits
Stream size : 122 MiB (9%)
Alignment : Split accross interleaves
Interleave, duration : 40 ms (1.00 video frame)
Interleave, preload duration : 500 ms



Скачать Пистолет.Страдивари.(Алексей.Луканев).[2009.криминал.приключения.HDTVRip].torrent без регистрации
Золото ЗОЛОТАЯ РАЗДАЧА! СКАЧАННОЕ НЕ ЗАСЧИТЫВАЕТСЯ! Золото
Дата: Зарегистрирован   [ Тип: внутренний ] Как тут cкачать?
MAGNET ссылка
MAGNET ссылка


Скачать .torrent

15 KB

Статус: проверено DHT
Скачан: торрент - 157 раз, раздача полностью - 122 раз
Размер: 1,4 GB
Оценка:  - (Голосов: 0)
Поблагодарили: 2
Поделиться ссылкой на эту раздачу с друзьями:
В контактеFacebookОдноклассникиTwitterLivejournalМой МирLiveinternet
 

 
Показать сообщения:    


Вы не можете начинать темы
Вы не можете отвечать на сообщения
Вы не можете редактировать свои сообщения
Вы не можете удалять свои сообщения
Вы не можете голосовать в опросах
Вы не можете прикреплять файлы к сообщениям
Вы можете скачивать файлы