Loading...
Error

Скачать Семейка придурков / The Stupids (Джон Лэндис / John Landis) [1996, комедия, приключения, DVDRip] [AVO] (Санаев) торрент без регистрации

 
Статистика раздачи
Размер:  1,46 GB   |    Скачан:  163 раза
Сидов:  1  [  0 KB/s  ]  
 
Автор Сообщение

leon030982

[] 

Семейка придурков / The Stupids


Год выпуска: 1996
Страна: США, Великобритания
Жанр: комедия, приключения
Продолжительность: 01:33:58
Перевод: Авторский (одноголосый закадровый) Павел Санаев
Cубтитры: нет
Режиссер: Джон Лэндис / John Landis
В ролях: Том Арнольд, Джессика Ланди, Баг Холл, Алекс МакКенна, Марк Меткалф, Мэтт Кислар, Скотт Крафт, Виктор Эртманис, Эрл Уильямс, Джордж Чианг
Описание: Болван — это фамилия. Мистер и миссис Болваны с двумя детьми, мальчиком и девочкой, жили в своем домике, и лишь одно омрачало их радостное существование — кто-то похищал по ночам их мусор. Целую ночь просидел отважный мистер Болван в засаде и выследил мусорную машину. Стал шпионить за ней на роликовых коньках. След привел его на помойку, где некие чины американской армии, обиженные недостаточным вниманием страны к их заслугам, продавали оружие бандитам, революционерам и террористам со всего мира. Военныепринимают его за агента ФБР и начинают за ним охоту. Дети, обнаружив исчезновение папы, обратились в полицию, оставив маме записку. Мама решила, что детей взяли в заложники полицейские.

Качество видео: DVDRip
Формат видео: AVI
Видео: 656x480 (1.37:1), 23.976 fps, XviD build 65 ~2018 kbps avg, 0.27 bit/pixel
Аудио: 48 kHz, AC3 Dolby Digital, 2/0 (L,R) ch, ~192 kbps
General
Complete name : D:\Релизы\The Stupids.1996.RUS.DVDRip.XviD.AC3.avi
Format : AVI
Format/Info : Audio Video Interleave
File size : 1.46 GiB
Duration : 1h 33mn
Overall bit rate : 2 220 Kbps
Writing application : VirtualDubMod 1.5.10.2 (build 2540/release)
Writing library : VirtualDubMod build 2540/release
Video
ID : 0
Format : MPEG-4 Visual
Format profile : Advanced Simple@L5
Format settings, BVOP : 1
Format settings, QPel : No
Format settings, GMC : No warppoints
Format settings, Matrix : Custom
Codec ID : XVID
Codec ID/Hint : XviD
Duration : 1h 33mn
Bit rate : 2 019 Kbps
Width : 656 pixels
Height : 480 pixels
Display aspect ratio : 4:3
Frame rate : 23.976 fps
Color space : YUV
Chroma subsampling : 4:2:0
Bit depth : 8 bits
Scan type : Progressive
Compression mode : Lossy
Bits/(Pixel*Frame) : 0.267
Stream size : 1.33 GiB (91%)
Writing library : XviD 65
Audio
ID : 1
Format : AC-3
Format/Info : Audio Coding 3
Mode extension : CM (complete main)
Format settings, Endianness : Big
Codec ID : 2000
Duration : 1h 33mn
Bit rate mode : Constant
Bit rate : 192 Kbps
Channel(s) : 2 channels
Channel positions : Front: L R
Sampling rate : 48.0 KHz
Bit depth : 16 bits
Compression mode : Lossy
Stream size : 129 MiB (9%)
Alignment : Split accross interleaves
Interleave, duration : 42 ms (1.00 video frame)
Interleave, preload duration : 500 ms



Скачать Семейка.придурков.The.Stupids.(Джон.Лэндис.John.Landis).[1996.комедия.приключения.DVDRip].[AVO].(Санаев).torrent без регистрации
Золото ЗОЛОТАЯ РАЗДАЧА! СКАЧАННОЕ НЕ ЗАСЧИТЫВАЕТСЯ! Золото
Дата: Зарегистрирован   [ Тип: внутренний ] Как тут cкачать?
MAGNET ссылка
MAGNET ссылка


Скачать .torrent

15 KB

Статус: проверено DHT
Скачан: торрент - 163 раз, раздача полностью - 84 раз
Размер: 1,46 GB
Оценка:  - (Голосов: 0)
Поблагодарили: 0
Поделиться ссылкой на эту раздачу с друзьями:
В контактеFacebookОдноклассникиTwitterLivejournalМой МирLiveinternet
 

 
Показать сообщения:    


Вы не можете начинать темы
Вы не можете отвечать на сообщения
Вы не можете редактировать свои сообщения
Вы не можете удалять свои сообщения
Вы не можете голосовать в опросах
Вы не можете прикреплять файлы к сообщениям
Вы можете скачивать файлы