Loading...
Error

Скачать Ненормальная (Александр Глобин) [2006, мелодрама, SATRip] торрент без регистрации

 
Статистика раздачи
Размер:  1,45 GB   |    Скачан:  137 раз

Полного источника не было: 26 минут

 
Автор Сообщение

deniska1975

[] 

Ненормальная


Жанр: мелодрама
Год выпуска: 2006
Продолжительность: 01:32:35

Режиссёр: Александр Глобин

В ролях:
Ольга Прокофьева, Андрей Финягин, Михаил Багдасаров, Оксана Дорохина, Ксения Зайцева, Игорь Карташев, Игорь Гаспарян, Макс Максимов, Юрий Квятковский, Анна Воронова

Описание:
История эта кажется нереальной, придуманной от начала до конца. Ну какая нормальная женщина станет ловить на улице незнакомого мужчину с просьбой помочь ей родить ребенка. Да еще за деньги. Но кто мог предсказать в самом начале, что еще несколько часов — и этот самый мужчина, пытавшийся сначала откупиться от навязчивой особы, будет объясняться ей в любви, покупать цветы и совершать безрассудные поступки.

Доп. информация:


Качество видео: SATRip
Формат видео: AVI

Видео: 704x400 (1.76:1), 25 fps, XviD build 65 ~2044 kbps avg, 0.29 bit/pixel
Аудио: 48 kHz, AC3 Dolby Digital, 2/0 (L,R) ch, ~192 kbps

Семпл

Общее
Полное имя : Ненормальная_1.46.avi
Формат : AVI
Формат/Информация : Audio Video Interleave
Размер файла : 1,45 Гбайт
Продолжительность : 1 ч. 32 м.
Общий поток : 2247 Кбит/сек
Программа кодирования : VirtualDubMod 1.5.10.3 (build 2550/release)
Библиотека кодирования : VirtualDubMod build 2550/release

Видео
Идентификатор : 0
Формат : MPEG-4 Visual
Профиль формата : Advanced Simple@L5
Параметр BVOP формата : 1
Параметр QPel формата : Нет
Параметр GMC формата : Без точки перехода
Параметр матрицы формата : Выборочная
Идентификатор кодека : XVID
Идентификатор кодека/Подсказка : XviD
Продолжительность : 1 ч. 32 м.
Битрейт : 2045 Кбит/сек
Ширина : 704 пикселя
Высота : 400 пикселей
Соотношение сторон : 16:9
Частота кадров : 25,000 кадров/сек
Цветовое пространство : YUV
Субдискретизация насыщенности : 4:2:0
Битовая глубина : 8 бит
Тип развёртки : Прогрессивная
Метод сжатия : С потерями
Бит/(Пиксели*Кадры) : 0.290
Размер потока : 1,32 Гбайт (91%)
Библиотека кодирования : XviD 65

Аудио
Идентификатор : 1
Формат : AC-3
Формат/Информация : Audio Coding 3
Расширение режима : CM (complete main)
Параметр Endianness формата : Big
Идентификатор кодека : 2000
Продолжительность : 1 ч. 32 м.
Вид битрейта : Постоянный
Битрейт : 192 Кбит/сек
Каналы : 2 канала
Расположение каналов : Front: L R
Частота : 48,0 КГц
Битовая глубина : 16 бит
Метод сжатия : С потерями
Размер потока : 127 Мбайт (9%)
Выравнивание : Разделение по промежуткам
Продолжительность промежутка : 40 мс. (1,00 видеокадр)
Время предзагрузки промежутка : 500 мс.



Скачать Ненормальная.(Александр.Глобин).[2006.мелодрама.SATRip].torrent без регистрации
Золото ЗОЛОТАЯ РАЗДАЧА! СКАЧАННОЕ НЕ ЗАСЧИТЫВАЕТСЯ! Золото
Дата: Зарегистрирован   [ Тип: внутренний ] Как тут cкачать?
MAGNET ссылка
MAGNET ссылка


Скачать .torrent

15 KB

Статус: проверено DHT
Скачан: торрент - 137 раз, раздача полностью - 15 раз
Размер: 1,45 GB
Оценка:  5 (Голосов: 1)
Поблагодарили: 1
Поделиться ссылкой на эту раздачу с друзьями:
В контактеFacebookОдноклассникиTwitterLivejournalМой МирLiveinternet
 

 
Показать сообщения:    


Вы не можете начинать темы
Вы не можете отвечать на сообщения
Вы не можете редактировать свои сообщения
Вы не можете удалять свои сообщения
Вы не можете голосовать в опросах
Вы не можете прикреплять файлы к сообщениям
Вы можете скачивать файлы