Loading...
Error

Скачать Фантоцци / Fantozzi (Лучиано Салче) [1975, комедия, DVDRip] [MVO] торрент без регистрации

 
Статистика раздачи
Размер:  1,37 GB   |    Скачан:  210 раз
Сидов:  1  [  0 KB/s  ]  
 
Автор Сообщение

Marsianka

[] 

Информация о фильме
Название: Фантоцци
Оригинальное название: Fantozzi
Год выхода: 1975
Жанр: комедия
Режиссер: Лучиано Салче
В ролях: Паоло Вилладжио, Анна Маццамауро, Гиги Редер, Джузеппе Анатрелли, Умберто Д`Орси, Паоло Паолони

О фильме:
Уго Фантоцци всю жизнь работает младшим бухгалтером, ездит на работу в автобусе, никогда не изменял жене. Начальство ни разу не повысило ему зарплату, женщины его не замечают, а коллеги не помнят, как его зовут. Однажды Фантоцци застрял в лифте и просидел там 18 дней - никто даже не заметил его отсутствия. Так больше жить нельзя! С понедельника Фантоцци начнет новую жизнь! Он купит себе новый костюм - черный, в белую полоску, пригласит на свидание самую красивую девушку бухгалтерии, пойдет к директору и потребует повысить зарплату, на целых 10 долларов...



Страна: Италия
Студия: Rizzoli Film S.P.A.
Продолжительность: 01:37:12
Перевод: Профессиональный (многоголосый закадровый)

Файл
Кодек: Xvid
Качество: DVDRip
Видео: 704x400, ~1781 Кбит/с, 25 fps
Звук: АС3, 2 ch, 224 Кбит/с
Субтитры: Нет

Семпл

General
Complete name : F:ФИЛЬМЫ-КОЛЛЕКЦИЯФ-ФFantocci.1975.XviD.DVDRip.avi
Format : AVI
Format/Info : Audio Video Interleave
File size : 1.37 GiB
Duration : 1h 37mn
Overall bit rate : 2 012 Kbps
Writing application : VirtualDubMod 1.5.4.1 (build 2178/release)
Writing library : VirtualDubMod build 2178/release

Video
ID : 0
Format : MPEG-4 Visual
Format profile : Advanced Simple@L5
Format settings, BVOP : 1
Format settings, QPel : No
Format settings, GMC : No warppoints
Format settings, Matrix : Custom
Codec ID : XVID
Codec ID/Hint : XviD
Duration : 1h 37mn
Bit rate : 1 781 Kbps
Width : 704 pixels
Height : 400 pixels
Display aspect ratio : 16:9
Frame rate : 25.000 fps
Color space : YUV
Chroma subsampling : 4:2:0
Bit depth : 8 bits
Scan type : Progressive
Compression mode : Lossy
Bits/(Pixel*Frame) : 0.253
Stream size : 1.21 GiB (89%)
Writing library : XviD 1.2.0.dev47 (UTC 2006-11-01)

Audio
ID : 1
Format : AC-3
Format/Info : Audio Coding 3
Mode extension : CM (complete main)
Format settings, Endianness : Big
Codec ID : 2000
Duration : 1h 37mn
Bit rate mode : Constant
Bit rate : 224 Kbps
Channel(s) : 2 channels
Channel positions : Front: L R
Sampling rate : 48.0 KHz
Bit depth : 16 bits
Compression mode : Lossy
Stream size : 156 MiB (11%)
Alignment : Split accross interleaves
Interleave, duration : 96 ms (2.40 video frames)
Interleave, preload duration : 96 ms
Language : Russian



Скачать Фантоцци.Fantozzi.(Лучиано.Салче).[1975.комедия.DVDRip].[MVO].torrent без регистрации
Золото ЗОЛОТАЯ РАЗДАЧА! СКАЧАННОЕ НЕ ЗАСЧИТЫВАЕТСЯ! Золото
Дата: Зарегистрирован   [ Тип: внутренний ] Как тут cкачать?
MAGNET ссылка
MAGNET ссылка


Скачать .torrent

14 KB

Статус: проверено DHT
Скачан: торрент - 210 раз, раздача полностью - 121 раз
Размер: 1,37 GB
Оценка:  5 (Голосов: 1)
Поблагодарили: 2
Поделиться ссылкой на эту раздачу с друзьями:
В контактеFacebookОдноклассникиTwitterLivejournalМой МирLiveinternet
 

 
Показать сообщения:    


Вы не можете начинать темы
Вы не можете отвечать на сообщения
Вы не можете редактировать свои сообщения
Вы не можете удалять свои сообщения
Вы не можете голосовать в опросах
Вы не можете прикреплять файлы к сообщениям
Вы можете скачивать файлы