Loading...
Error

Скачать Кролик и бык / Bunny and the Bull (Пол Кинг) [2009, комедия, драма, HDRip] [VO]+[Sub] торрент без регистрации

 
Статистика раздачи
Размер:  1,56 GB   |    Скачан:  96 раз
Сидов:  1  [  0 KB/s  ]  
 
Автор Сообщение

Marsianka

[] 



Страна: Великобритания
Жанр: комедия, драма
Год выпуска: 2009
Продолжительность: 01:37:07
Перевод: Одноголосый закадровый (Михаил Кшиштовский)
Cубтитры: есть (русские, английские)


СЭМПЛ
Режиссер: Пол Кинг / Paul King
В ролях:
Эдвард Хогг /Edward Hogg/, Саймон Фарнэби /Simon Farnaby/, Вероника Эчегуи /Veronica Echegui/, Ричард Айоэйд /Richard Ayoade/, Джулиан Бэррэтт /Julian Barratt/, Ноэль Филдинг /Noel Fielding/, Рич Фалчер /Rich Fulcher/, Сильвия Симс /Sylvia Syms/, Джеймс Фокс /James Fox/ и другие
Описание: Сюрреалистическая комедия от создателей английского ситкома Mighty Boosh Кролик и Бык - road мovie, снятый полностью в студии. Стивен Тернбулл (Edward Hogg), не выходил из квартиры в течении нескольких месяцев. Завевшиеся дома мыши сводят на нет его повседневную, рутинную жизнь. Выход он находит, мысленно возвращаясь к катастрофическому путешествию по Европе, которое он предпринял вместе со своим другом Кроликом (Simon Farnaby). С развитием истории Стивен всё время пытается выбраться из квартиры, в то время как галлюцинации нескольких человек из путешествия постоянно беспокоят его.
Перевод и озвучка: Михаил Кшиштовский
Тип релиза: HDRip
Контейнер: AVI
Видео: XviD 720x304 (2.35:1) 25fps 1642kbps 0.300 Bits/Pixel
Аудио:Аудио 1 (VO): AC3, 48.0 KHz, 192 Kbps, 2 ch (L+R),
Аудио 2 (Оригинал): AC3, 48.0 KHz, 384 Kbps, 6 ch (L C R+L R, LFE),

General
Complete name : C:Кролик и бык.avi
Format : AVI
Format/Info : Audio Video Interleave
File size : 22.0 MiB
Duration : 58s 520ms
Overall bit rate : 3 156 Kbps
Writing application : VirtualDubModRus 1.5.10.2 (build 2542/release)
Writing library : VirtualDubMod build 2542/release
Video
ID : 0
Format : MPEG-4 Visual
Format profile : Advanced Simple@L5
Format settings, BVOP : 2
Format settings, QPel : No
Format settings, GMC : No warppoints
Format settings, Matrix : Custom
Codec ID : XVID
Codec ID/Hint : XviD
Duration : 1h 37mn
Bit rate : 1 642 Kbps
Width : 720 pixels
Height : 304 pixels
Display aspect ratio : 2.35:1
Frame rate : 25.000 fps
Color space : YUV
Chroma subsampling : 4:2:0
Bit depth : 8 bits
Scan type : Progressive
Compression mode : Lossy
Bits/(Pixel*Frame) : 0.457
Stream size : 17.4 MiB (79%)
Writing library : XviD 1.2.1 (UTC 2008-12-04)
Audio #1
ID : 1
Format : AC-3
Format/Info : Audio Coding 3
Mode extension : CM (complete main)
Format settings, Endianness : Big
Codec ID : 2000
Duration : 1h 37mn
Bit rate mode : Constant
Bit rate : 192 Kbps
Channel(s) : 2 channels
Channel positions : Front: L R
Sampling rate : 48.0 KHz
Bit depth : 16 bits
Compression mode : Lossy
Delay relative to video : 16ms
Stream size : 1.34 MiB (6%)
Alignment : Split accross interleaves
Interleave, duration : 40 ms (1.01 video frame)
Interleave, preload duration : 500 ms
Audio #2
ID : 2
Format : AC-3
Format/Info : Audio Coding 3
Mode extension : CM (complete main)
Format settings, Endianness : Big
Codec ID : 2000
Duration : 1h 37mn
Bit rate mode : Constant
Bit rate : 448 Kbps
Channel(s) : 6 channels
Channel positions : Front: L C R, Side: L R, LFE
Sampling rate : 48.0 KHz
Bit depth : 16 bits
Compression mode : Lossy
Delay relative to video : 16ms
Stream size : 3.13 MiB (14%)
Alignment : Split accross interleaves
Interleave, duration : 40 ms (1.01 video frame)
Interleave, preload duration : 500 ms



Скачать Кролик.и.бык.Bunny.and.the.Bull.(Пол.Кинг).[2009.комедия.драма.HDRip].[VO]+[Sub].torrent без регистрации
Золото ЗОЛОТАЯ РАЗДАЧА! СКАЧАННОЕ НЕ ЗАСЧИТЫВАЕТСЯ! Золото
Дата: Зарегистрирован   [ Тип: внутренний ] Как тут cкачать?
MAGNET ссылка
MAGNET ссылка


Скачать .torrent

16 KB

Статус: проверено DHT
Скачан: торрент - 96 раз, раздача полностью - 3 раз
Размер: 1,56 GB
Оценка:  - (Голосов: 0)
Поблагодарили: 0
Поделиться ссылкой на эту раздачу с друзьями:
В контактеFacebookОдноклассникиTwitterLivejournalМой МирLiveinternet
 

 
Показать сообщения:    


Вы не можете начинать темы
Вы не можете отвечать на сообщения
Вы не можете редактировать свои сообщения
Вы не можете удалять свои сообщения
Вы не можете голосовать в опросах
Вы не можете прикреплять файлы к сообщениям
Вы можете скачивать файлы