Loading...
Error

Скачать Революция / Revolution (сезон 01) (Джон Фавро) [2012-2013, фантастика, WEB-DLRip] [MVO (LostFilm)] торрент без регистрации

 
Статистика раздачи
Размер:  10,81 GB   |    Скачан:  725 раз
Сидов:  1  [  0 KB/s  ]  
 
Автор Сообщение

МихаНЕзатор

[] 

Название: Революция
Оригинальное название: Revolution
Год выхода: 2012
Жанр: Фантастика
Режиссер: Джон Фавро
В ролях: Шэйн Каллахан, Кен Арнольд, Джанкарло Эспозито, Билли Бурк, Тим Гини, Уильям Хатчингс, Элизабет Митчелл, Даниэлла Алонсо, Мария Хауэлл, Зак Орт, Дж.Д. Пардо, Майкл Дьюсенберг, Майк Холмс, Трэйси Спиридакос

Описание: Вся наша жизнь зависит от электричества. Что же произойдет, если оно внезапно исчезнет? Однажды, словно по щелчку выключателя, весь мир был отброшен в темные века. Самолеты падали с небес, больницы лишались энергообеспечения, связь стала невозможной. Теперь, без всех современных технологий, кто же ответит, почему?

Через 15 лет после бедствия, жизнь стала такой, какой она была до промышленной революции: семьи живут на глухих улочках, с заходом солнца зажигают фонари и свечи. Жизнь стала спокойнее и лучше. Но так ли это?

За пределами небольших фермерских общин все еще таится опасность. Так жизнь молодой девушки резко меняется, когда местная полиция убивает ее отца, который каким-то неведомым для дочери образом имел связь с отключением. Это событие заставляет ее вместе с двумя спутниками отправиться в смелое путешествие, чтобы найти правду о прошлом в надежде изменить будущее.

Страна: США
Студия изготовитель: Warner Bros. Television, Bad Robot
Продолжительность: 09 x ~ 00:45:00
Перевод: Профессиональный (многоголосый, закадровый) LostFilm

Релиз от:

Качество: WEB-DLRip
Формат: AVI
Видео кодек: XviD
Аудио кодек: MP3
Видео: XviD, 720x400, ~1600 kbps
Аудио: MP3, 2 ch, 128-192 Kbps

06.06.2013 г. торент обновлён, добавлена 20-я серия, сезон полностью!

01. Пилот / Pilot
02. Ярость на цепи / Chained Heat
03. Никакой пощады / No Quarter
04. Цепные псы / The Plague Dogs
05. Шумный рейс / Soul Train
06. Секс и наркотики / Sex and Drugs
07. Детский крестовый поход / The Children's Crusade
08. Кровные узы / Ties That Bind
09. Кашмир / Kashmir
10. Только моя вина / Nobody's Fault But Mine
11. The Stand
12. Призраки / Ghosts
13. Старая песня о главном / The Song Remains the Same
14. Ночь, когда в Джорджии погасли огни / The Night the Lights Went Out
15. Дом / Home
16. Лодка любви / The Love Boat
17. Самый длинный день / The Longest Day
18. Улика / Clue
19. Дети человеческие / Children of Men
20. Темная башня / The Dark Tower
Формат : AVI
Формат/Информация : Audio Video Interleave
Размер файла : 475 Мбайт
Продолжительность : 42 м.
Общий поток : 1551 Кбит/сек
Программа кодирования : Nandub v1.0rc2
Библиотека кодирования : Nandub build 1853/release

Видео
Идентификатор : 0
Формат : MPEG-4 Visual
Профиль формата : Simple@L3
Параметр BVOP формата : Нет
Параметр QPel формата : Нет
Параметр GMC формата : Без точки перехода
Параметр матрицы формата : Default (H.263)
Идентификатор кодека : XVID
Идентификатор кодека/Подсказка : XviD
Продолжительность : 42 м.
Битрейт : 1352 Кбит/сек
Ширина : 720 пикс.
Высота : 400 пикс.
Соотношение сторон : 16:9
Частота кадров : 23,976 кадр/сек
Цветовое пространство : YUV
Подвыборка цветности : 4:2:0
Битовая глубина : 8 бит
Тип развёртки : Прогрессивная
Метод сжатия : С потерями
Бит/(Пиксели*Кадры) : 0.196
Размер потока : 414 Мбайт (87%)
Библиотека кодирования : XviD 1.2.1 (UTC 2008-12-04)

Аудио
Идентификатор : 1
Формат : MPEG Audio
Версия формата : Version 1
Профиль формата : Layer 3
Режим : Joint stereo
Расширение режима : MS Stereo
Идентификатор кодека : 55
Идентификатор кодека/Подсказка : MP3
Продолжительность : 42 м.
Вид битрейта : Переменный
Битрейт : 192 Кбит/сек
Каналы : 2 канала
Частота : 48,0 КГц
Метод сжатия : С потерями
Размер потока : 57,1 Мбайт (12%)
Выравнивание : Соединение по промежуткам
Продолжительность промежутка : 24 мс. (0,58 видеокадр)
Время предзагрузки промежутка : 486 ms
Библиотека кодирования : LAME3.97b
Настройки программы : -m j -V 4 -q 3 -lowpass 18.6 --abr 192



Скачать Революция.Revolution.(сезон.01).(Джон.Фавро).[2012-2013.фантастика.WEB-DLRip].[MVO.(LostFilm)].torrent без регистрации
Золото ЗОЛОТАЯ РАЗДАЧА! СКАЧАННОЕ НЕ ЗАСЧИТЫВАЕТСЯ! Золото
Дата: Зарегистрирован   [ Тип: внутренний ] Как тут cкачать?
MAGNET ссылка
MAGNET ссылка


Скачать .torrent

56 KB

Статус: проверено DHT
Скачан: торрент - 725 раз, раздача полностью - 194 раз
Размер: 10,81 GB
Оценка:  5 (Голосов: 7)
Поблагодарили: 18
Поделиться ссылкой на эту раздачу с друзьями:
В контактеFacebookОдноклассникиTwitterLivejournalМой МирLiveinternet
 

 

piratbit

[] 

спасибо!!!
 

Штайн

[] 

Что то не понятно, это же первый сезон 2012 года?
 

МихаНЕзатор

[] 

Раздача обновлена
 

МихаНЕзатор

[] 

Раздача обновлена.
 
Показать сообщения:    


Вы не можете начинать темы
Вы не можете отвечать на сообщения
Вы не можете редактировать свои сообщения
Вы не можете удалять свои сообщения
Вы не можете голосовать в опросах
Вы не можете прикреплять файлы к сообщениям
Вы можете скачивать файлы