Loading...
Error

Скачать Люди Альфа / Alphas (Сезон 2, серии 01-11 из 13) (Мэттью Хатингс) [2012 г., фантастика, боевик, драма, триллер, WEB-DLRip] [400p] [MVO] (LostFilm) торрент без регистрации

 
Статистика раздачи
Размер:  9,2 GB   |    Скачан:  159 раз
Сидов:  1  [  0 KB/s  ]  
 
Автор Сообщение

leon030982

[] 

Люди Альфа / Alphas / (Сезон 2, серии 01-09 из 13)

Год выпуска: 2012
Страна: США
Жанр: фантастика, боевик, триллер, драма
Продолжительность: ~ 00:45:00
Перевод: Профессиональный (многоголосый закадровый) - LostFilm
Субтитры: отсутствуют
Режиссёр: Ник Копус
В ролях: Райан Картрайт /Ryan Cartwright/, Лаура Меннелл /Laura Mennell/, Дэвид Стрэтэйрн /David Strathairn/, Мэлик Йоба /Malik Yoba/, Азита Ганизада /Azita Ghanizada/, Махершалалхашбаз Али /Mahershalalhashbaz Ali/, Валери Крус /Valerie Cruz/, Уоррен Кристи /Warren Christie/, Кэтлин Гати /Kathleen Gati/, Джон Пайпер-Фергюсон /John Pyper-Ferguson
Описание: Эксперт министерства обороны Ли Розен возглавляет подразделение специалистов, обладающих уникальными способностями. Каждый из пяти членов его команды - человек со сверхразвитыми психофизическими возможностями. В разработку группы Альфа попадают исключительно сверхсложные задания, с которыми не могут справиться американские спецслужбы - ФБР и ЦРУ. По отдельности каждый из агентов мало чем отличается от обычных людей и в одиночку не способен на что-то экстраординарное, но вместе они могут творить чудеса.
Релиз:
Рип: Visitors91
Сэмпл: http://multi-up.com/738917
Качество: WEB-DLRip
Формат: AVI
Видео кодек: XviD
Аудио кодек: AC3
Видео: 720x400 (1.80:1), 23.976 fps, XviD build 65 ~2 000 kbps avg, 0.29 bit/pixel
Аудио: 48 kHz, AC3 Dolby Digital, 3/2 (L,C,R,l,r) + LFE ch, ~384.00 kbps avg
Аудио2: 48 kHz, AC3 Dolby Digital, 3/2 (L,C,R,l,r) + LFE ch, ~384.00 kbps avg[/font]
General
Complete name : I:\ЗАКАЧКИ\Люди Альфа .s02.(LostFilm)\Alphas.s02e01.400p.web-dl.avi
Format : AVI
Format/Info : Audio Video Interleave
File size : 873 MiB
Duration : 43mn 51s
Overall bit rate : 2 782 Kbps
Writing application : VirtualDubMod 1.5.10.2 (build 2540/release)
Writing library : VirtualDubMod build 2540/release
Video
ID : 0
Format : MPEG-4 Visual
Format profile : Advanced Simple@L5
Format settings, BVOP : 1
Format settings, QPel : No
Format settings, GMC : No warppoints
Format settings, Matrix : Custom
Codec ID : XVID
Codec ID/Hint : XviD
Duration : 43mn 51s
Bit rate : 2 000 Kbps
Width : 720 pixels
Height : 400 pixels
Display aspect ratio : 16:9
Frame rate : 23.976 fps
Color space : YUV
Chroma subsampling : 4:2:0
Bit depth : 8 bits
Scan type : Progressive
Compression mode : Lossy
Bits/(Pixel*Frame) : 0.290
Stream size : 627 MiB (72%)
Writing library : XviD 65
Audio #1
ID : 1
Format : AC-3
Format/Info : Audio Coding 3
Mode extension : CM (complete main)
Codec ID : 2000
Duration : 43mn 51s
Bit rate mode : Constant
Bit rate : 384 Kbps
Channel(s) : 6 channels
Channel positions : Front: L C R, Side: L R, LFE
Sampling rate : 48.0 KHz
Bit depth : 16 bits
Compression mode : Lossy
Stream size : 120 MiB (14%)
Alignment : Split accross interleaves
Interleave, duration : 42 ms (1.00 video frame)
Interleave, preload duration : 500 ms
Audio #2
ID : 2
Format : AC-3
Format/Info : Audio Coding 3
Mode extension : CM (complete main)
Codec ID : 2000
Duration : 43mn 51s
Bit rate mode : Constant
Bit rate : 384 Kbps
Channel(s) : 6 channels
Channel positions : Front: L C R, Side: L R, LFE
Sampling rate : 48.0 KHz
Bit depth : 16 bits
Compression mode : Lossy
Stream size : 120 MiB (14%)
Alignment : Split accross interleaves
Interleave, duration : 42 ms (1.00 video frame)
Interleave, preload duration : 500 ms
Внимание! Раздача ведётся путём добавления новых серий; при каждом добавлении создётся новый торрент. Чтобы начать докачку новой серии, пользователям необходимо сделать следующее:
(1) остановить скачивание,
(2) удалить старый торрент у себя из клиента (старые серии удалять не надо),
(3) скачать новый торрент и запустить его у себя в клиенте вместо старого, при этом указать клиенту путь в старую папку куда и должно происходить скачивание новых серий.
Ваш клиент при этом должен произвести хеширование (проверку) старой папки (если не производит сам - помогите ему сделать это), и будет докачивать только те серии которых у вас ещё нет. Старые серии при этом не удаляются, а продолжают раздаваться!
Eсли вы уже удалили старые серии, то предотвратить повторную закачку старых серий можно, отжав галочку в соответсвующих местах при запуске нового торрента. По возможности, желательно не удалять старые серии как можно дольше чтобы релизёр не столько продолжал раздавать старые серии, а смог сконцентрироваться на новых.



Скачать Люди.Альфа.Alphas.(Сезон.2.серии.01-11.из.13).(Мэттью.Хатингс).[2012.г.фантастика.боевик.драма.триллер.WEB-DLRip].[400p].[MVO].(LostFilm).torrent без регистрации
Золото ЗОЛОТАЯ РАЗДАЧА! СКАЧАННОЕ НЕ ЗАСЧИТЫВАЕТСЯ! Золото
Дата: Зарегистрирован   [ Тип: внутренний ] Как тут cкачать?
MAGNET ссылка
MAGNET ссылка


Скачать .torrent

47 KB

Статус: проверено DHT
Скачан: торрент - 159 раз, раздача полностью - 10 раз
Размер: 9,2 GB
Оценка:  5 (Голосов: 1)
Поблагодарили: 1
Поделиться ссылкой на эту раздачу с друзьями:
В контактеFacebookОдноклассникиTwitterLivejournalМой МирLiveinternet
 

 
Показать сообщения:    


Вы не можете начинать темы
Вы не можете отвечать на сообщения
Вы не можете редактировать свои сообщения
Вы не можете удалять свои сообщения
Вы не можете голосовать в опросах
Вы не можете прикреплять файлы к сообщениям
Вы можете скачивать файлы