Loading...
Error

Скачать Кости / Bones (сезон 10) (Стивен ДеПол, Йен Тойнтон, Аллен Крокер) [2014, драма, мелодрама, комедия, криминал, детектив, WEB-DL] [1080p] [MVO (BaibaKo)]+[Eng] торрент без регистрации

 
Статистика раздачи
Размер:  38,86 GB   |    Скачан:  5432 раза
Сидов:  1  [  0 KB/s  ]  
 
Автор Сообщение

МихаНЕзатор

[] 

Название: Кости
Оригинальное название: Bones
Год выхода: 2014
Жанр: драма, мелодрама, комедия, криминал, детектив
Режиссер: Иэн Тойнтон / Ian Toynton, Дуайт Х. Литтл / Dwight H. Little, Жанно Шварк / Jeannot Szwarc

В ролях: Эмили Дешанель, Дэвид Бореаназ, Микаэла Конлин, Ти-Джей Тайн, Тамара Тейлор, Джон Фрэнсис Дейли, Эрик Миллеган, Патриция Белчер, Майкл Терри, Юджин Бирд

О фильме: Доктор Темперанс Бреннан — блестящий, но одинокий антрополог, получает то, чего она меньше всего желала — напарника. Бюро посылает ей амбициозного агента ФБР Сили Бута, чтобы помочь в расследовании нераскрытых дел, путем изучения и идентификации костей давно пропавших людей.
Но давно умершие жертвы не единственное, с чем придется столкнуться Боунс, Буту и их команде, раскрывая преступления, они часто сталкиваются с взяточничеством, коррупцией и местной разрозненностью.



Страна: США
Продолжительность: ~ 00:43:00
Перевод: Любительский (многоголосый закадровый) BaibaKo

Файл
Кодек: h.264
Качество: WEB-DL 1080p
Видео: MPEG-4 AVC, ~ 5000 Кбит/с, 1920x1080
Звук: Русский, английский (AC3, 6 ch, 384 Кбит/с)

АНОНСЫ ПОПУЛЯРНЫХ РАЗДАЧ


Торрент обновлён, добавлена 22-я серия!
Общее
Уникальный идентификатор : 185616141318759636575292714751353654329 (0x8BA45E543AC4F241B946F073CD0F8C39)
Полное имя : Bones.s10e01.HD1080p.WEB-DL.Rus.Eng.BaibaKo.tv.mkv
Формат : Matroska
Версия формата : Version 4 / Version 2
Размер файла : 1,76 Гбайт
Продолжительность : 43 м.
Общий поток : 5738 Кбит/сек
Дата кодирования : UTC 2014-09-27 16:17:47
Программа кодирования : mkvmerge v6.7.0 ('Back to the Ground') 64bit built on Jan 8 2014 15:10:52
Библиотека кодирования : libebml v1.3.0 + libmatroska v1.4.1

Видео
Идентификатор : 1
Формат : AVC
Формат/Информация : Advanced Video Codec
Профиль формата : High@L4.0
Параметр CABAC формата : Да
Параметр ReFrames формата : 4 кадра
Идентификатор кодека : V_MPEG4/ISO/AVC
Продолжительность : 43 м.
Битрейт : 4856 Кбит/сек
Ширина : 1920 пикселей
Высота : 1080 пикселей
Соотношение сторон : 16:9
Режим частоты кадров : Постоянный
Частота кадров : 23,976 кадра/сек
Цветовое пространство : YUV
Субдискретизация насыщенности : 4:2:0
Битовая глубина : 8 бит
Тип развёртки : Прогрессивная
Бит/(Пиксели*Кадры) : 0.098
Размер потока : 1,49 Гбайт (85%)
Язык : English
Default : Да
Forced : Нет
Основные цвета : BT.709
Характеристики трансфера : BT.709
Коэффициенты матрицы : BT.709

Аудио #1
Идентификатор : 2
Формат : AC-3
Формат/Информация : Audio Coding 3
Расширение режима : CM (complete main)
Параметр Endianness формата : Big
Идентификатор кодека : A_AC3
Продолжительность : 43 м.
Вид битрейта : Постоянный
Битрейт : 384 Кбит/сек
Каналы : 6 каналов
Расположение каналов : Front: L C R, Side: L R, LFE
Частота : 48,0 КГц
Битовая глубина : 16 бит
Метод сжатия : С потерями
Размер потока : 121 Мбайт (7%)
Язык : Russian
Default : Да
Forced : Нет

Аудио #2
Идентификатор : 3
Формат : AC-3
Формат/Информация : Audio Coding 3
Расширение режима : CM (complete main)
Параметр Endianness формата : Big
Идентификатор кодека : A_AC3
Продолжительность : 43 м.
Вид битрейта : Постоянный
Битрейт : 384 Кбит/сек
Каналы : 6 каналов
Расположение каналов : Front: L C R, Side: L R, LFE
Частота : 48,0 КГц
Битовая глубина : 16 бит
Метод сжатия : С потерями
Размер потока : 121 Мбайт (7%)
Язык : English
Default : Нет
Forced : Нет



Скачать Кости.Bones.(сезон.10).(Стивен.ДеПол.Йен.Тойнтон.Аллен.Крокер).[2014.драма.мелодрама.комедия.криминал.детектив.WEB-DL].[1080p].[MVO.(BaibaKo)]+[Eng].torrent без регистрации
Золото ЗОЛОТАЯ РАЗДАЧА! СКАЧАННОЕ НЕ ЗАСЧИТЫВАЕТСЯ! Золото
Дата: Зарегистрирован   [ Тип: внутренний ] Как тут cкачать?
MAGNET ссылка
MAGNET ссылка


Скачать .torrent

51 KB

Статус: проверено DHT
Скачан: торрент - 5432 раз, раздача полностью - 9 раз
Размер: 38,86 GB
Оценка:  5 (Голосов: 1)
Поблагодарили: 3
Поделиться ссылкой на эту раздачу с друзьями:
В контактеFacebookОдноклассникиTwitterLivejournalМой МирLiveinternet
 

 
Показать сообщения:    


Вы не можете начинать темы
Вы не можете отвечать на сообщения
Вы не можете редактировать свои сообщения
Вы не можете удалять свои сообщения
Вы не можете голосовать в опросах
Вы не можете прикреплять файлы к сообщениям
Вы можете скачивать файлы