Loading...
Error

Скачать Поле чудес / Поле мечты / Field of Dreams (Фил Олден Робинсон / Phil Alden Robinson) [1989 г., Фэнтези, драма, семейный, спорт, HD-DVDRip] [АVO] (Гаврилов) + [АVO] (Горчаков) торрент без регистрации

 
Статистика раздачи
Размер:  1,47 GB   |    Скачан:  121 раз
Сидов:  1  [  0 KB/s  ]  
 
Автор Сообщение

leon030982

[] 

Поле чудес / Поле мечты / Field of Dreams


Год выхода: 1989
Страна: США
Жанр: Фэнтези, драма, семейный, спорт
Продолжительность: 01:45:38
Перевод 1: Авторский (одноголосый, закадровый) (Гаврилов)
Перевод 2: Авторский (одноголосый, закадровый) (Горчаков)
Русские субтитры: нет

Режиссер: Фил Олден Робинсон / Phil Alden Robinson

В ролях: Кевин Костнер, Эми Мэдиган, Гэби Хоффманн, Рэй Лиотта, Тимоти Басфилд, Джеймс Эрл Джонс, Берт Ланкастер, Фрэнк Уэйли, Дуайр Браун, Джеймс Энделин

Описание: "Если ты построишь его, он придет...". Слова эти нашептывает Рэю Кинселлу странный, потусторонний голос... И Рэй, простой фермер из Айовы, решает построить его. Он жертвует своими кукурузными плантациями и превращает их... в бейсбольное поле! Спрашивается, зачем фермеру из безлюдной провинции - бейсбольное поле? Затем может быть, чтобы осуществить самые заветные мечты, и простое поле превратилось... в поле чудес. И чудо происходит... Ночью на поле появляются призраки, призраки людей, которых Рэй так хотел увидеть...

Качество: HD-DVDRip
Формат: AVI
Видео кодек: XviD
Аудио кодек: AC3
Видео: 720x400 (1.80:1), 23.976 fps, XviD build 50 ~1588 kbps avg, 0.23 bit/pixel
Аудио1: 48 kHz, AC3 Dolby Digital, 2/0 (L,R) ch, ~192.00 kbps avg - [Гаврилов]
Аудио2: 48 kHz, AC3 Dolby Digital, 2/0 (L,R) ch, ~192.00 kbps avg - [Горчаков]
D:\001 МОИ РАЗДАЧИ\Поле чудес 1,46\pole_chudes_1.46_[torrents.ru]_by_bm11.avi
General
Complete name : D:\001 МОИ РАЗДАЧИ\Поле чудес 1,46\pole_chudes_1.46_[torrents.ru]_by_bm11.avi
Format : AVI
Format/Info : Audio Video Interleave
File size : 1.47 GiB
Duration : 1h 45mn
Overall bit rate : 1 987 Kbps
Writing application : VirtualDubMod 1.5.10.2 (build 2540/release)
Writing library : VirtualDubMod build 2540/release
Video
Format : MPEG-4 Visual
Format profile : Streaming Video@L1
Format settings, BVOP : Yes
Format settings, QPel : No
Format settings, GMC : No warppoints
Format settings, Matrix : Custom
Codec ID : XVID
Codec ID/Hint : XviD
Duration : 1h 45mn
Bit rate : 1 589 Kbps
Width : 720 pixels
Height : 400 pixels
Display aspect ratio : 16/9
Frame rate : 23.976 fps
Resolution : 24 bits
Colorimetry : 4:2:0
Scan type : Progressive
Bits/(Pixel*Frame) : 0.230
Stream size : 1.17 GiB (80%)
Writing library : XviD 50
Audio
Format : AC-3
Format/Info : Audio Coding 3
Codec ID : 2000
Duration : 1h 45mn
Bit rate mode : Constant
Bit rate : 192 Kbps
Channel(s) : 2 channels
Channel positions : L R
Sampling rate : 48.0 KHz
Stream size : 145 MiB (10%)
Alignment : Split accross interleaves
Interleave, duration : 42 ms (1.00 video frame)
Interleave, preload duration : 500 ms
Audio
Format : AC-3
Format/Info : Audio Coding 3
Codec ID : 2000
Duration : 1h 45mn
Bit rate mode : Constant
Bit rate : 192 Kbps
Channel(s) : 2 channels
Channel positions : L R
Sampling rate : 48.0 KHz
Stream size : 145 MiB (10%)
Alignment : Split accross interleaves
Interleave, duration : 42 ms (1.00 video frame)
Interleave, preload duration : 500 ms





Скачать Поле.чудес.Поле.мечты.Field.of.Dreams.(Фил.Олден.Робинсон.Phil.Alden.Robinson).[1989.г.Фэнтези.драма.семейный.спорт.HD-DVDRip].[АVO].(Гаврилов).+.[АVO].(Горчаков).torrent без регистрации
Золото ЗОЛОТАЯ РАЗДАЧА! СКАЧАННОЕ НЕ ЗАСЧИТЫВАЕТСЯ! Золото
Дата: Зарегистрирован   [ Тип: внутренний ] Как тут cкачать?
MAGNET ссылка
MAGNET ссылка


Скачать .torrent

15 KB

Статус: проверено DHT
Скачан: торрент - 121 раз, раздача полностью - 7 раз
Размер: 1,47 GB
Оценка:  - (Голосов: 0)
Поблагодарили: 0
Поделиться ссылкой на эту раздачу с друзьями:
В контактеFacebookОдноклассникиTwitterLivejournalМой МирLiveinternet
 

 
Показать сообщения:    


Вы не можете начинать темы
Вы не можете отвечать на сообщения
Вы не можете редактировать свои сообщения
Вы не можете удалять свои сообщения
Вы не можете голосовать в опросах
Вы не можете прикреплять файлы к сообщениям
Вы можете скачивать файлы