Loading...
Error

Скачать Башня смерти / Tower of Death / Si wang ta (Нг Сиюэнь, Саммо Хунг Кам-Бо, Кори Юэнь) [1981, боевик, детектив, BDRip] [MVO] торрент без регистрации

 
Статистика раздачи
Размер:  745 MB   |    Скачан:  141 раз
Сидов:  1  [  0 KB/s  ]  
 
Автор Сообщение

Marsianka

[] 

Год выпуска: 1981
Страна: Гонконг

Жанр: боевик, детектив
Продолжительность: 01:36:06

Перевод: Профессиональный (многоголосый, закадровый) SUPERBIT
Субтитры: нет
Оригинальная дорожка: нет

Режиссер: Нг Сиюэнь / See-Yuen Ng, Саммо Хунг Кам-Бо / Sammo Hung Kam-Bo, Кори Юэнь / Corey Yuen

Продюсер :Куэнь Чунг / Kuen Cheung, Рэймонд Чоу / Raymond Chow, Андре Э. Морган / Andre Morgan, Нг Сиюэнь / See-Yuen Ng

Композитор: Фрэнки Чан / Frankie Chan

В ролях: Брюс Ли (Billy Lo / Lee Chen-Chiang), Таи Чунг Ким (Bobby Lo / Lee Chen-Kuo), Янг Ли Хванг (Chin Ku), Рой Хоран (Lewis), Рой Чяо (Abbot), Казанова Вон (Korean Fighter), Хой Сан Ли (Monk Fighter), Миранда Остин (Angel), Хон Юэнь Ма, Грэхэм Рейви (Unnamed guy who gets beaten up), Дэн Шварц, Юэнь Бяо (Billy Lo / Bobby Lo / Blue Staff Monk, в титрах не указан)
Мировая премьера: 21 марта 1981
Релиз на DVD: 6 ноября 2008, «Синема Трейд»
Описание: Наркомафия убивает мастера боевых искусств, и его младший брат начинает мстить преступникам...

Источник: BDRemux 1080p
Тип релиза: BDRip
Контейнер: AVI

Видео: 688x288 (2.40:1), 23.976 fps, XviD 64 ~ 947 kbps avg, 0.199 bit/pixel
Аудио: 48 kHz, MP3, 2 ch, 128.00 kbps, Русский

Общее
Полное имя : Bashnja.smerti.1981Bashnja.smerti.1981.BDRip.avi
Формат : AVI
Формат/Информация : Audio Video Interleave
Размер файла : 745 Мбайт
Продолжительность : 1 ч. 36 м.
Общий поток : 1084 Кбит/сек
Программа кодирования : VirtualDubModRus 1.5.10.2 (build 2542/release)
Библиотека кодирования : VirtualDubMod build 2542/release

Видео
Идентификатор : 0
Формат : MPEG-4 Visual
Профиль формата : Advanced Simple@L5
Параметр BVOP формата : 1
Параметр QPel формата : Нет
Параметр GMC формата : Без точки перехода
Параметр матрицы формата : Выборочная
Идентификатор кодека : XVID
Идентификатор кодека/Подсказка : XviD
Продолжительность : 1 ч. 36 м.
Битрейт : 947 Кбит/сек
Ширина : 688 пикселей
Высота : 288 пикселей
Соотношение сторон : 2,40:1
Частота кадров : 23,976 кадра/сек
Цветовое пространство : YUV
Субдискретизация насыщенности : 4:2:0
Битовая глубина : 8 бит
Тип развёртки : Прогрессивная
Метод сжатия : С потерями
Бит/(Пиксели*Кадры) : 0.199
Размер потока : 651 Мбайт (87%)
Библиотека кодирования : XviD 64

Аудио
Идентификатор : 1
Формат : MPEG Audio
Версия формата : Version 1
Профиль формата : Layer 3
Режим : Joint stereo
Расширение режима : MS Stereo
Идентификатор кодека : 55
Идентификатор кодека/Подсказка : MP3
Продолжительность : 1 ч. 35 м.
Вид битрейта : Постоянный
Битрейт : 128 Кбит/сек
Каналы : 2 канала
Частота : 48,0 КГц
Метод сжатия : С потерями
Размер потока : 87,8 Мбайт (12%)
Выравнивание : Соединение по промежуткам
Продолжительность промежутка : 42 мс. (1,00 видеокадр)
Время предзагрузки промежутка : 504 мс.
Библиотека кодирования : LAME3.99
Раздача от:



Скачать Башня.смерти.Tower.of.Death.Si.wang.ta.(Нг.Сиюэнь.Саммо.Хунг.Кам-Бо.Кори.Юэнь).[1981.боевик.детектив.BDRip].[MVO].torrent без регистрации
Золото ЗОЛОТАЯ РАЗДАЧА! СКАЧАННОЕ НЕ ЗАСЧИТЫВАЕТСЯ! Золото
Дата: Зарегистрирован   [ Тип: внутренний ] Как тут cкачать?
MAGNET ссылка
MAGNET ссылка


Скачать .torrent

15 KB

Статус: проверено DHT
Скачан: торрент - 141 раз, раздача полностью - 28 раз
Размер: 745 MB
Оценка:  5 (Голосов: 1)
Поблагодарили: 2
Поделиться ссылкой на эту раздачу с друзьями:
В контактеFacebookОдноклассникиTwitterLivejournalМой МирLiveinternet
 

 
Показать сообщения:    


Вы не можете начинать темы
Вы не можете отвечать на сообщения
Вы не можете редактировать свои сообщения
Вы не можете удалять свои сообщения
Вы не можете голосовать в опросах
Вы не можете прикреплять файлы к сообщениям
Вы можете скачивать файлы