Loading...
Error

Скачать Дорожная полиция / Чипс 99 / CHiPs '99 (Джон Кассар / Jon Cassar) [1998, Боевик, криминал, драма, VHSRip] [Dub] ["Варус - Видео"] торрент без регистрации

 
Статистика раздачи
Размер:  946 MB   |    Скачан:  123 раза
Сидов:  1  [  0 KB/s  ]  
 
Автор Сообщение

leon030982

[] 

Дорожная полиция / Чипс 99 / CHiPs '99


Год выпуска: 1998
Страна: США
Жанр: Боевик, криминал, драма
Продолжительность: 01:34:37
Перевод: Профессиональный (дублированный) "Варус - Видео"
Cубтитры: нет

Режиссер: Джон Кассар / Jon Cassar

В ролях: Ларри Уилкокс, Эрик Эстрада, Роберт Пайн, Пол Корвер, Дэвид Рэмси, Броди Грир, Брюс Пенхалл, Пол Линке, Джуди Шейндлин, Джонатан Бэйкер, Джо Басиле, Стефен Дж. Кэннел, Джонни Л. Кохрэн, Гуги Гресс, Том Холлик, Аллан Колмэн, Гэрри Маршалл, Гэрри Маршалл, Клодетт Минк, Майк Морофф, Стэйси Рэндолл, Декс Эллиот Сандерс, Эйлин Вейзингер, Эдди Янсик, Том Эверетт

Описание: Сюжет CHIPs 99 рассказывает нам об двух офицерах калифорнийской дорожной полиции, которые работают в паре. Понч – оптимистичный и задорный весельчак, который не признаёт правил и запретов. Джон – прямодушный и старательный зануда. После долгой разлуки с напарником Понч снова вернулся на службу в доблестную полицию, и решил помочь своему другу Джону расследовать целую серию краж автомобилей. При попытке поймать банду похитителей, полицейские используют различную технику: вертолёты, автомобили и мотоциклы. Также не обошлось без эффектных и головокружительных мотогонок, в которых принимали участие мотоциклы фирмы Kawasaki и BMW. Рекомендую этот фильм всем, кого влекут приключения, яркие эмоции, а также чувство юмора.

Доп. информация: Оцифровка звука Fikaloid. Работа со звуком alex7691
Сэмпл: http://multi-up.com/767915
Качество видео: VHSRip
Формат видео: AVI
Видео: XviD build 50, 576x432 (4:3), 29.970 fps, 1011 kbps avg
Аудио: Russian AC3 Dolby Digital, 48 kHz, 2/0 (L,R) ch, 192.00 kbps avg
Аудио 2: English AC3 Dolby Digital, 48 kHz, 2/0 (L,R) ch, 192.00 kbps avg
General
Complete name : D:\CHiPs '99_1998\CHiPs '99.1998.VHSRip.Lem.avi
Format : AVI
Format/Info : Audio Video Interleave
File size : 946 MiB
Duration : 1h 34mn
Overall bit rate : 1 395 Kbps
Movie name : STORAGELABS TINYUDF.Title1.DVDRip
Director : HP_Owner
Writing application : VirtualDubModRus 1.5.10.2 (build 2542/release)
Writing library : VirtualDubMod build 2542/release
Original source form/Name : STORAGELABS TINYUDF
Video
ID : 0
Format : MPEG-4 Visual
Format profile : Simple@L3
Format settings, BVOP : No
Format settings, QPel : No
Format settings, GMC : No warppoints
Format settings, Matrix : Default (H.263)
Codec ID : XVID
Codec ID/Hint : XviD
Duration : 1h 34mn
Bit rate : 1011 Kbps
Width : 576 pixels
Height : 432 pixels
Display aspect ratio : 4:3
Frame rate : 29.970 fps
Color space : YUV
Chroma subsampling : 4:2:0
Bit depth : 8 bits
Scan type : Progressive
Compression mode : Lossy
Bits/(Pixel*Frame) : 0.133
Stream size : 673 MiB (71%)
Writing library : XviD 1.1.2 (UTC 2006-11-01)
Audio #1
ID : 1
Format : AC-3
Format/Info : Audio Coding 3
Mode extension : CM (complete main)
Format settings, Endianness : Big
Codec ID : 2000
Duration : 1h 34mn
Bit rate mode : Constant
Bit rate : 192 Kbps
Channel(s) : 2 channels
Channel positions : Front: L R
Sampling rate : 48.0 KHz
Bit depth : 16 bits
Compression mode : Lossy
Stream size : 130 MiB (14%)
Alignment : Split accross interleaves
Interleave, duration : 33 ms (1.00 video frame)
Interleave, preload duration : 500 ms
Audio #2
ID : 2
Format : AC-3
Format/Info : Audio Coding 3
Mode extension : CM (complete main)
Format settings, Endianness : Big
Codec ID : 2000
Duration : 1h 34mn
Bit rate mode : Constant
Bit rate : 192 Kbps
Channel(s) : 2 channels
Channel positions : Front: L R
Sampling rate : 48.0 KHz
Bit depth : 16 bits
Compression mode : Lossy
Stream size : 130 MiB (14%)
Alignment : Split accross interleaves
Interleave, duration : 33 ms (1.00 video frame)
Interleave, preload duration : 500 ms



Скачать Дорожная.полиция.Чипс.99.CHiPs.'99.(Джон.Кассар.Jon.Cassar).[1998.Боевик.криминал.драма.VHSRip].[Dub].["Варус.-.Видео"].torrent без регистрации
Золото ЗОЛОТАЯ РАЗДАЧА! СКАЧАННОЕ НЕ ЗАСЧИТЫВАЕТСЯ! Золото
Дата: Зарегистрирован   [ Тип: внутренний ] Как тут cкачать?
MAGNET ссылка
MAGNET ссылка


Скачать .torrent

19 KB

Статус: проверено DHT
Скачан: торрент - 123 раз, раздача полностью - 4 раз
Размер: 946 MB
Оценка:  - (Голосов: 0)
Поблагодарили: 0
Поделиться ссылкой на эту раздачу с друзьями:
В контактеFacebookОдноклассникиTwitterLivejournalМой МирLiveinternet
 

 
Показать сообщения:    


Вы не можете начинать темы
Вы не можете отвечать на сообщения
Вы не можете редактировать свои сообщения
Вы не можете удалять свои сообщения
Вы не можете голосовать в опросах
Вы не можете прикреплять файлы к сообщениям
Вы можете скачивать файлы