Loading...
Error

Скачать Осторожно! Двери закрываются / Sliding Doors (Питер Хоуитт) [1998, романтическая комедия, драма, фантастика, DVDRip-AVC] [MVO] + [Sub Rus] + [Original Eng] торрент без регистрации

 
Статистика раздачи
Размер:  2,07 GB   |    Скачан:  116 раз
Сидов:  1  [  0 KB/s  ]  
 
Автор Сообщение

leon030982

[] 

Осторожно! Двери закрываются / Sliding Doors

Год выпуска: 1998
Страна: США, Великобритания
Жанр: романтическая комедия, драма, фантастика
Продолжительность: 01:35:04
Перевод: Профессиональный (многоголосый закадровый)
Cубтитры: русские
Оригинальная аудиодорожка: английский

Режиссер: Питер Хоуитт

В ролях: Гвинет Пэлтроу, Джон Ханна, Джон Линч, Джинн Триплхорн, Зара Тернер

Описание: Хелен Куилли - молодая девушка, едет домой на метро. И вот ситуация номер один - она успевает на поезд и застаёт своего любимого дома с любовницей. И ситуация номер два - по чистой случайности Хелен не успевает на поезд и не узнает об измене своего парня. В первой ситуации она рвет со своим парнем и начинает новую жизнь, во второй ситуации Хелен продолжает жить со своим парнем, у которого есть любовница. Интересно, может ли такая небольшая случайность, как опоздание на поезд, кардинально изменить судьбу человека ? Или же наша жизнь не зависит от мелких случайностей ? Зрителю дается возможность увидеть оба поворота событий и самому узнать влияние случайностей на нашу жизнь.



Фильм награжден премией Европейской киноакадемии за лучшую работу сценариста, премией Британской киноакадемии за самый выдающийся британский фильм года.

Сэмпл: http://multi-up.com/767902
Качество видео: DVDRip-AVC
Формат видео: MKV
Видео: V_MPEG4/ISO/AVC; 720x576@1024x576 (AR 16:9); 25,000 кадров/сек; 2345 Кбит/сек ; 0.227 bit/pixel
Аудио: Русский язык: AC-3; 48,0 КГц; 384 Кбит/сек; 6 каналов; Front: L C R, Side: L R, LFE
Аудио 2: Английский язык : AC-3; 48,0 КГц; 384 Кбит/сек; 6 каналов; Front: L C R, Side: L R, LFE
Доп. информация о субтитрах: Русские (VobSub)
Общее
Уникальный идентификатор : 186271016204066732731512918379828751984 (0x8C227E2758CADD25BADBAAFA72822E70)
Полное имя : C:\!Torrent\SLIDING_DOORS.mkv
Формат : Matroska
Версия формата : Version 2
Размер файла : 2,07 Гбайт
Продолжительность : 1 ч. 35 м.
Общий поток : 3118 Кбит/сек
Название фильма : Done with AutoMKV 0.98.4 http://forum.doom9.org/showthread.php?t=140178
Дата кодирования : UTC 2012-09-30 13:30:00
Программа кодирования : mkvmerge v5.7.0 ('The Whirlwind') built on Jul 8 2012 20:08:51
Библиотека кодирования : libebml v1.2.3 + libmatroska v1.3.0
Видео
Идентификатор : 1
Формат : AVC
Формат/Информация : Advanced Video Codec
Профиль формата : High@L4.0
Параметр CABAC формата : Да
Параметр ReFrames формата : 6 кадров
Идентификатор кодека : V_MPEG4/ISO/AVC
Продолжительность : 1 ч. 35 м.
Битрейт : 2345 Кбит/сек
Ширина : 716 пикселей
Высота : 576 пикселей
Соотношение сторон : 16:9
Соотношение сторон в оригинале : 5:4
Режим частоты кадров : Постоянный
Частота кадров : 25,000 кадров/сек
Цветовое пространство : YUV
Субдискретизация насыщенности : 4:2:0
Битовая глубина : 8 бит
Тип развёртки : Прогрессивная
Бит/(Пиксели*Кадры) : 0.227
Размер потока : 1,52 Гбайт (73%)
Заголовок : SLIDING_DOOR
Библиотека кодирования : x264 core 66 r1092 60f4cd8
Настройки программы : cabac=1 / ref=6 / deblock=1:-1:-1 / analyse=0x3:0x113 / me=umh / subme=7 / psy_rd=1.0:1.0 / mixed_ref=1 / me_range=16 / chroma_me=1 / trellis=2 / 8x8dct=1 / cqm=0 / deadzone=21,11 / chroma_qp_offset=-4 / threads=3 / nr=0 / decimate=1 / mbaff=0 / bframes=6 / b_pyramid=1 / b_adapt=2 / b_bias=0 / direct=3 / wpredb=1 / keyint=250 / keyint_min=25 / scenecut=40(pre) / rc=2pass / bitrate=2345 / ratetol=1.0 / qcomp=0.60 / qpmin=10 / qpmax=51 / qpstep=4 / cplxblur=20.0 / qblur=0.5 / vbv_maxrate=25000 / vbv_bufsize=14000 / ip_ratio=1.40 / pb_ratio=1.30 / aq=1:1.00
Default : Да
Forced : Нет
Аудио #1
Идентификатор : 2
Формат : AC-3
Формат/Информация : Audio Coding 3
Расширение режима : CM (complete main)
Параметр Endianness формата : Big
Идентификатор кодека : A_AC3
Продолжительность : 1 ч. 35 м.
Вид битрейта : Постоянный
Битрейт : 384 Кбит/сек
Каналы : 6 каналов
Расположение каналов : Front: L C R, Side: L R, LFE
Частота : 48,0 КГц
Битовая глубина : 16 бит
Метод сжатия : С потерями
Размер потока : 261 Мбайт (12%)
Заголовок : Rus audio
Язык : Russian
Default : Да
Forced : Нет
Аудио #2
Идентификатор : 3
Формат : AC-3
Формат/Информация : Audio Coding 3
Расширение режима : CM (complete main)
Параметр Endianness формата : Big
Идентификатор кодека : A_AC3
Продолжительность : 1 ч. 35 м.
Вид битрейта : Постоянный
Битрейт : 384 Кбит/сек
Каналы : 6 каналов
Расположение каналов : Front: L C R, Side: L R, LFE
Частота : 48,0 КГц
Битовая глубина : 16 бит
Метод сжатия : С потерями
Размер потока : 261 Мбайт (12%)
Заголовок : Eng audio
Язык : English
Default : Нет
Forced : Нет
Текст
Идентификатор : 4
Формат : VobSub
Идентификатор кодека : S_VOBSUB
Идентификатор кодека/Информация : The same subtitle format used on DVDs
Заголовок : Eng subtitles
Язык : English
Default : Да
Forced : Нет
Меню
00:00:00.000 : en:Chapter 1
00:04:20.640 : en:Chapter 2
00:10:06.320 : en:Chapter 3
00:13:58.640 : en:Chapter 4
00:18:12.240 : en:Chapter 5
00:25:23.720 : en:Chapter 6
00:31:01.400 : en:Chapter 7
00:35:53.640 : en:Chapter 8
00:41:22.000 : en:Chapter 9
00:45:04.880 : en:Chapter 10
00:48:30.000 : en:Chapter 11
00:52:25.760 : en:Chapter 12
00:58:23.240 : en:Chapter 13
01:02:15.440 : en:Chapter 14
01:10:28.040 : en:Chapter 15
01:16:31.680 : en:Chapter 16
01:20:03.400 : en:Chapter 17
01:24:12.440 : en:Chapter 18
01:31:56.160 : en:Chapter 19



Скачать Осторожно!.Двери.закрываются.Sliding.Doors.(Питер.Хоуитт).[1998.романтическая.комедия.драма.фантастика.DVDRip-AVC].[MVO].+.[Sub.Rus].+.[Original.Eng].torrent без регистрации
Золото ЗОЛОТАЯ РАЗДАЧА! СКАЧАННОЕ НЕ ЗАСЧИТЫВАЕТСЯ! Золото
Дата: Зарегистрирован   [ Тип: внутренний ] Как тут cкачать?
MAGNET ссылка
MAGNET ссылка


Скачать .torrent

11 KB

Статус: проверено DHT
Скачан: торрент - 116 раз, раздача полностью - 178 раз
Размер: 2,07 GB
Оценка:  - (Голосов: 0)
Поблагодарили: 4
Поделиться ссылкой на эту раздачу с друзьями:
В контактеFacebookОдноклассникиTwitterLivejournalМой МирLiveinternet
 

 
Показать сообщения:    


Вы не можете начинать темы
Вы не можете отвечать на сообщения
Вы не можете редактировать свои сообщения
Вы не можете удалять свои сообщения
Вы не можете голосовать в опросах
Вы не можете прикреплять файлы к сообщениям
Вы можете скачивать файлы