Loading...
Error

Скачать Исповедь невидимки / Воспоминания человека-невидимки / Memoirs of an Invisible Man (Джон Карпентер / John Carpenter) [1992 г., фантастика, триллер, комедия, мелодрама, DVDRip-AVC] [MVO] + [AVO] торрент без регистрации

 
Статистика раздачи
Размер:  1,44 GB   |    Скачан:  127 раз
Сидов:  1  [  0 KB/s  ]  
 
Автор Сообщение

leon030982

[] 

Исповедь невидимки / Воспоминания человека-невидимки / Memoirs of an Invisible Man

Год выпуска: 1992
Страна: США, Великобритания
Жанр: фантастика, триллер, комедия, мелодрама
Продолжительность: 01:39:05
Перевод 1: Профессиональный (многоголосый, закадровый)
Перевод 2: Авторский (профессиональный одноголосный, закадровый) [А. Гаврилов]

Русские субтитры: нет
Режиссер: Джон Карпентер / John Carpenter

В ролях: Чеви Чэйз /Chevy Chase/, Дэрил Ханна /Daryl Hannah/, Сэм Нилл /Sam Neill/, Майкл МакКин /Michael McKean/, Стивен Тоболовски /Stephen Tobolowsky

Описание: В результате взрыва в научной лаборатории главный герой фильма становится невидимым. Это переворачивает всю его жизнь; циничные сотрудники ЦРУ начинают охоту на него, однако с помощью очаровательной подружки ему удается выйти победителем из схватки с негодяями.

сценарий: Х. Ф. Сейнт, Роберт Коллектор, Дэна Олсен, ...
продюсер: Брюс Боднер, Дэн Колсруд, Арнон Милчэн
оператор: Уильям А. Фрейкер
композитор: Ширли Уокер
бюджет: $40 000 000
сборы в США: $14 358 033
премьера (мир): 28 февраля 1992

Kинопоиск - 7.506 (1068)
IMDB - 5.80 (8 053)

Семпл: Минутный (15мб)
Исходник:
Качество: DVDRip-AVC
Формат: MKV
Видео кодек: H.264
Аудио кодек: AC3
Видео: размер кадра: 720x368 @ 849x368, 23.976 fps, битрейт: 1661 кб/с
Аудио#1: аудиокодек: AC3 2.0, 48 KHz, битрейт аудио: 192 кб/с - Многоголосный
Аудио#2: аудиокодек: AC3 2.0, 48 KHz, битрейт аудио: 192 кб/с - Гаврилов
Format : Matroska
File size : 1.44 GiB
Duration : 1h 39mn
Overall bit rate : 2 086 Kbps
Encoded date : UTC 2010-02-20 06:23:48
Writing application : mkvmerge v3.0.0 ('Hang up your Hang-Ups') built on Jan 6 2010 22:49:38
Writing library : libebml v0.7.9 + libmatroska v0.8.1
Video
ID : 1
Format : AVC
Format/Info : Advanced Video Codec
Format profile : High@L3.0
Format settings, CABAC : Yes
Format settings, ReFrames : 5 frames
Muxing mode : Container profile=Unknown@3.0
Codec ID : V_MPEG4/ISO/AVC
Duration : 1h 38mn
Bit rate : 1 661 Kbps
Nominal bit rate : 1 700 Kbps
Width : 720 pixels
Height : 368 pixels
Display aspect ratio : 2.35:1
Original display aspect ratio : 2.35:1
Frame rate : 23.976 fps
Resolution : 24 bits
Colorimetry : 4:2:0
Scan type : Progressive
Bits/(Pixel*Frame) : 0.261
Stream size : 1.15 GiB (80%)
Title : Исповедь Невидимки
Writing library : x264 core 85 r1442 781d300
Encoding settings : cabac=1 / ref=5 / deblock=1:-1:-1 / analyse=0x3:0x133 / me=umh / subme=7 / psy=1 / psy_rd=1.00:0.20 / mixed_ref=1 / me_range=16 / chroma_me=1 / trellis=2 / 8x8dct=1 / cqm=0 / deadzone=21,11 / fast_pskip=0 / chroma_qp_offset=-3 / threads=6 / sliced_threads=0 / nr=0 / decimate=0 / mbaff=0 / constrained_intra=0 / bframes=3 / b_pyramid=0 / b_adapt=2 / b_bias=0 / direct=3 / wpredb=1 / wpredp=2 / keyint=250 / keyint_min=25 / scenecut=40 / intra_refresh=0 / rc_lookahead=50 / rc=2pass / mbtree=1 / bitrate=1700 / ratetol=1.0 / qcomp=0.60 / qpmin=10 / qpmax=51 / qpstep=4 / cplxblur=20.0 / qblur=0.5 / ip_ratio=1.40 / aq=1:1.00
Language : English
Audio #1
ID : 2
Format : AC-3
Format/Info : Audio Coding 3
Codec ID : A_AC3
Duration : 1h 39mn
Bit rate mode : Constant
Bit rate : 192 Kbps
Channel(s) : 2 channels
Channel positions : L R
Sampling rate : 48.0 KHz
Stream size : 136 MiB (9%)
Title : Многоголосный
Language : Russian
Audio #2
ID : 3
Format : AC-3
Format/Info : Audio Coding 3
Format profile : Dolby Digital
Codec ID : A_AC3
Duration : 1h 39mn
Bit rate mode : Constant
Bit rate : 192 Kbps
Channel(s) : 2 channels
Channel positions : L R
Sampling rate : 48.0 KHz
Video delay : 16ms
Stream size : 136 MiB (9%)
Title : Одноголосный
Language : Russian



Скачать Исповедь.невидимки.Воспоминания.человека-невидимки.Memoirs.of.an.Invisible.Man.(Джон.Карпентер.John.Carpenter).[1992.г.фантастика.триллер.комедия.мелодрама.DVDRip-AVC].[MVO].+.[AVO].torrent без регистрации
Золото ЗОЛОТАЯ РАЗДАЧА! СКАЧАННОЕ НЕ ЗАСЧИТЫВАЕТСЯ! Золото
Дата: Зарегистрирован   [ Тип: внутренний ] Как тут cкачать?
MAGNET ссылка
MAGNET ссылка


Скачать .torrent

15 KB

Статус: проверено DHT
Скачан: торрент - 127 раз, раздача полностью - 15 раз
Размер: 1,44 GB
Оценка:  - (Голосов: 0)
Поблагодарили: 0
Поделиться ссылкой на эту раздачу с друзьями:
В контактеFacebookОдноклассникиTwitterLivejournalМой МирLiveinternet
 

 
Показать сообщения:    


Вы не можете начинать темы
Вы не можете отвечать на сообщения
Вы не можете редактировать свои сообщения
Вы не можете удалять свои сообщения
Вы не можете голосовать в опросах
Вы не можете прикреплять файлы к сообщениям
Вы можете скачивать файлы