Loading...
Error

Скачать Андалузский пёс / Un Chien Andalou (Луис Бунюэль) [1929, короткометражка, немое кино, авангард, сюрреализм, DVDRip] [Sub] торрент без регистрации

 
Статистика раздачи
Размер:  349 MB   |    Скачан:  149 раз
Сидов:  1  [  0 KB/s  ]  
 
Автор Сообщение

МихаНЕзатор

[] 


Название: Андалузский пёс
Оригинальное название: Un Chien Andalou
Год выхода: 1929
Жанр: короткометражка, немое кино, авангард, сюрреализм
Режиссер: Луис Бунюэль/Luis Bunuel
Сценарий: Сальвадор Дали/Salvador Dali, Луис Бунюэль/Luis Bunuel

В ролях: Симона Марёй/Simone Mareuil, Пьер Батчефф/Pierre Batcheff, Сальвадор Дали/Salvador Dali, Луис Бунюэль/Luis Bunuel, Роберт Хоммет/Robert Hommet, Марвал/Marval, Фано Мессан/Fano Messan, Хайме Миравиллес/Jaime Miravilles и другие

Страна: Франция
Продолжительность: 00:21:26
Перевод: Только субтитры / 3 оригинальные аудиодорожки



Качество видео: DVDRip
Формат видео: Avi
Видео: 640x480 (1.33:1), 25.000 fps, XviD build 50, ~1681 kbps, 0.22 bit/pixel
Аудио 1: 48 kHz, AC3, 2 ch, 192 kbps | [Оригинал 1960 года]
Аудио 2: 48 kHz, AC3, 2 ch, 192 kbps | [Оригинал 1929 года]
Аудио 3: 48 kHz, AC3, 2 ch, 192 kbps | [Оригинал 1983 года]
Субтитры: Русские




Семнадцать минут причудливых сюрреалистических образов, которые с равным успехом могут нести в себе глубочайший смысл или не значить вовсе ничего. Глаз, располосованный бритвой; человек, тычущий тростью в отрубленную руку, лежащую среди улицы; мужчина, волокущий за собой два рояля, в которых мертвые, полуразложившиеся ослики и вполне живые священники; человеческая ладонь с дырой, из которой появляются муравьи...




В основе сценария фильма «Андалузский пёс» лежат два сновидения его создателей Луиса Буньюэля и Сальвадора Дали.

Сам Луис Бунюэль сыграл роль мужчины с бритвой в прологе.

«Андалузскими псами» в Студенческой резиденции презрительно называли южан; прозвище означало: слюнтяй, маменькин сынок, недотёпа, растяпа и т. п.

На премьере фильма в Париже в 1928 году у Луиса Буньюэля были запасены полные карманы камней, чтобы в случае скандала иметь возможность отбиться от разъярённых зрителей. Опасения режиссёра оказались напрасными.

Фильм содержит аллюзии на произведения нескольких писателей того времени, в том числе на стихотворения Федерико Гарсиа Лорки и роман Хуана Рамона Хименеса «Платеро и я», который создатели фильма сильно недолюбливали.

Для съёмок эпизода с проведением лезвия ножа по глазу девушки использовался коровий глаз.

Пьер Батчефф и Симона Марей в разное время покончили жизнь самоубийством, Марей подожгла себя в 1954 году, Батчефф умер от передозировки вероналом в 1932 году.

Следующий фильм Буньюэля «Золотой век» (Age dor, 1930) считается стилистическим продолжением «Андалузского пса».

Существует три версии фильма. Первая немая, при ее показе Бунюэль прятал за экраном граммофон, который играл музыку. В 1960 году Буньюэль добавил к фильму саундтрек музыку из оперы Вагнера «Тристан и Изольда» и два аргентинских танго. Эту же музыку играл граммофон во время премьерных показов фильма. А в 1983 году появилась еще одна версия озвучки, там другая музыка и вой собаки.

Общее:
Формат : AVI
Формат/Информация : Audio Video Interleave
Размер файла : 349 Мбайт
Продолжительность : 21 м.
Общий поток : 2279 Кбит/сек

Видео:
Идентификатор : 0
Формат : MPEG-4 Visual
Профиль формата : Advanced Simple@L5
Параметр BVOP формата : 2
Параметр QPel формата : Нет
Параметр GMC формата : Без точки перехода
Параметр матрицы формата : Default (H.263)
Идентификатор кодека : XVID
Идентификатор кодека/Подсказка : XviD
Продолжительность : 21 м.
Битрейт : 1683 Кбит/сек
Ширина : 640 пикс.
Высота : 480 пикс.
Соотношение сторон : 4:3
Частота кадров : 25,000 кадр/сек
Цветовое пространство : YUV
Подвыборка цветности : 4:2:0
Битовая глубина : 8 бит
Тип развёртки : Прогрессивная
Метод сжатия : С потерями
Бит/(Пиксели*Кадры) : 0.219
Размер потока : 258 Мбайт (74%)
Библиотека кодирования : XviD 1.2.1 (UTC 2008-12-04)

Аудио #1:
Идентификатор : 1
Формат : AC-3
Формат/Информация : Audio Coding 3
Расширение режима : CM (complete main)
Идентификатор кодека : 2000
Продолжительность : 21 м.
Вид битрейта : Постоянный
Битрейт : 192 Кбит/сек
Канал(ы) : 2 канала(ов)
Расположение каналов : Front: L R
Частота : 48,0 КГц
Битовая глубина : 16 бит
Метод сжатия : С потерями
Размер потока : 29,4 Мбайт (8%)
Выравнивание : Разделение по промежуткам
Продолжительность промежутка : 40 мс. (1,00 видеокадр)
Время предзагрузки промежутка : 500 ms

Аудио #2:
Идентификатор : 2
Формат : AC-3
Формат/Информация : Audio Coding 3
Расширение режима : CM (complete main)
Идентификатор кодека : 2000
Продолжительность : 21 м.
Вид битрейта : Постоянный
Битрейт : 192 Кбит/сек
Канал(ы) : 2 канала(ов)
Расположение каналов : Front: L R
Частота : 48,0 КГц
Битовая глубина : 16 бит
Метод сжатия : С потерями
Размер потока : 29,4 Мбайт (8%)
Выравнивание : Разделение по промежуткам
Продолжительность промежутка : 40 мс. (1,00 видеокадр)
Время предзагрузки промежутка : 500 ms

Аудио #3:
Идентификатор : 3
Формат : AC-3
Формат/Информация : Audio Coding 3
Расширение режима : CM (complete main)
Идентификатор кодека : 2000
Продолжительность : 21 м.
Вид битрейта : Постоянный
Битрейт : 192 Кбит/сек
Канал(ы) : 2 канала(ов)
Расположение каналов : Front: L R
Частота : 48,0 КГц
Битовая глубина : 16 бит
Метод сжатия : С потерями
Размер потока : 29,4 Мбайт (8%)
Выравнивание : Разделение по промежуткам
Продолжительность промежутка : 40 мс. (1,00 видеокадр)
Время предзагрузки промежутка : 500 ms



Скачать Андалузский.пёс.Un.Chien.Andalou.(Луис.Бунюэль).[1929.короткометражка.немое.кино.авангард.сюрреализм.DVDRip].[Sub].torrent без регистрации
Золото ЗОЛОТАЯ РАЗДАЧА! СКАЧАННОЕ НЕ ЗАСЧИТЫВАЕТСЯ! Золото
Дата: Зарегистрирован   [ Тип: внутренний ] Как тут cкачать?
MAGNET ссылка
MAGNET ссылка


Скачать .torrent

15 KB

Статус: проверено DHT
Скачан: торрент - 149 раз, раздача полностью - 33 раз
Размер: 349 MB
Оценка:  - (Голосов: 0)
Поблагодарили: 1
Поделиться ссылкой на эту раздачу с друзьями:
В контактеFacebookОдноклассникиTwitterLivejournalМой МирLiveinternet
 

 
Показать сообщения:    


Вы не можете начинать темы
Вы не можете отвечать на сообщения
Вы не можете редактировать свои сообщения
Вы не можете удалять свои сообщения
Вы не можете голосовать в опросах
Вы не можете прикреплять файлы к сообщениям
Вы можете скачивать файлы