Loading...
Error

Скачать Природа зверя / Nature of the beast (Виктор Сальва / Victor Salva) [1995, триллер, ужасы, детектив, DVDRip] [DVO] (Бяко Рекордс) торрент без регистрации

 
Статистика раздачи
Размер:  1,47 GB   |    Скачан:  144 раза
Сидов:  1  [  0 KB/s  ]  
 
Автор Сообщение

leon030982

[] 

Природа зверя / Nature of the beast


Год выпуска: 1995
Страна: США
Жанр: триллер, ужасы, детектив
Продолжительность: 01:30
Перевод: Профессиональный (двухголосый, закадровый)
Cубтитры: русские, английские
Озвучка: Бяко Рекордс (Константин Погодаев и Анна Тух)
Перевод: Мекс
Работа со звуком: Михаил Шорыгин
Работа с видео: koss
Режиссер: Виктор Сальва

В ролях: Эрик Робертс, Лэнс Хенриксен, Саша Дженсон, Ана Гэбриэл, Илой Касадос, Брайон Джеймс, Лайла Гэрретт, Фрэнк Новак, Элиза Робертс и другие.

Описание: В придорожном кафе, расположенным рядом с крупным шоссе, встречаются двое мужчин. Одного зовут Джек Повелл, он автомобилист, едущий по своим делам, а другой — Эдриан, человек, путешествующий автостопом. В дальнейшем выясняется, что один из них ограбил казино в Лас-Вегасе, украв кругленькую сумму — миллион долларов, а другой серийный убийца, о котором постоянно объявляют в выпуске новостей по радио. Однако сущность зверя раскроется лишь в самом конце фильма…

Качество видео: DVDRip
Формат видео: AVI
Видео: 720x400 (16:9), 23.976 fps, XviD ~1926 kbps avg, 0.279 bit/pixel
Аудио 1 (русский): 48 kHz, AC3 Dolby Digital, 2/0 (L,R) ch, ~192.00 kbps avg
Аудио 2 (английский): 48 kHz, AC3 Dolby Digital, 2/0 (L,R) ch, ~192.00 kbps avg
Video
ID : 0
Format : MPEG-4 Visual
Format profile : Advanced Simple@L5
Format settings, BVOP : 2
Format settings, QPel : No
Format settings, GMC : No warppoints
Format settings, Matrix : Default (MPEG)
Codec ID : XVID
Codec ID/Hint : XviD
Duration : 1h 30mn
Bit rate : 1 926 Kbps
Width : 720 pixels
Height : 400 pixels
Display aspect ratio : 16:9
Frame rate : 23.976 fps
Color space : YUV
Chroma subsampling : 4:2:0
Bit depth : 8 bits
Scan type : Progressive
Compression mode : Lossy
Bits/(Pixel*Frame) : 0.279
Stream size : 1.22 GiB (83%)
Writing library : XviD 64
Audio #1
ID : 1
Format : AC-3
Format/Info : Audio Coding 3
Mode extension : CM (complete main)
Codec ID : 2000
Duration : 1h 30mn
Bit rate mode : Constant
Bit rate : 192 Kbps
Channel(s) : 2 channels
Channel positions : Front: L R
Sampling rate : 48.0 KHz
Bit depth : 16 bits
Compression mode : Lossy
Stream size : 124 MiB (8%)
Alignment : Split accross interleaves
Interleave, duration : 42 ms (1.00 video frame)
Interleave, preload duration : 500 ms
Audio #2
ID : 2
Format : AC-3
Format/Info : Audio Coding 3
Mode extension : CM (complete main)
Codec ID : 2000
Duration : 1h 30mn
Bit rate mode : Constant
Bit rate : 192 Kbps
Channel(s) : 2 channels
Channel positions : Front: L R
Sampling rate : 48.0 KHz
Bit depth : 16 bits
Compression mode : Lossy
Stream size : 124 MiB (8%)
Alignment : Split accross interleaves
Interleave, duration : 42 ms (1.00 video frame)
Interleave, preload duration : 500 ms



Скачать Природа.зверя.Nature.of.the.beast.(Виктор.Сальва.Victor.Salva).[1995.триллер.ужасы.детектив.DVDRip].[DVO].(Бяко.Рекордс).torrent без регистрации
Золото ЗОЛОТАЯ РАЗДАЧА! СКАЧАННОЕ НЕ ЗАСЧИТЫВАЕТСЯ! Золото
Дата: Зарегистрирован   [ Тип: внутренний ] Как тут cкачать?
MAGNET ссылка
MAGNET ссылка


Скачать .torrent

30 KB

Статус: проверено DHT
Скачан: торрент - 144 раз, раздача полностью - 22 раз
Размер: 1,47 GB
Оценка:  - (Голосов: 0)
Поблагодарили: 1
Поделиться ссылкой на эту раздачу с друзьями:
В контактеFacebookОдноклассникиTwitterLivejournalМой МирLiveinternet
 

 
Показать сообщения:    


Вы не можете начинать темы
Вы не можете отвечать на сообщения
Вы не можете редактировать свои сообщения
Вы не можете удалять свои сообщения
Вы не можете голосовать в опросах
Вы не можете прикреплять файлы к сообщениям
Вы можете скачивать файлы