Loading...
Error

Скачать Великолепный век / Muhtesem Yüzyil (03x64-103) (Дурул Тайлан, Ягмур Тайлан) [2011-2013, драма, мелодрама, военный, биография, история, HDTVRip] [VO (turok1990)] торрент без регистрации

 
Статистика раздачи
Размер:  42,75 GB   |    Скачан:  3820 раз
Сидов:  1  [  0 KB/s  ]  
 
Автор Сообщение

МихаНЕзатор

[] 

Информация о фильме
Название: Великолепный век
Оригинальное название: Muhtesem Yüzyil
Год выхода: 2011-2012
Жанр: драма, мелодрама, военный, биография, история
Режиссер: Дурул Тайлан / Durul Taylan, Ягмур Тайлан / Yagmur Taylan

В ролях: Небахат Чехре /Nebahat wehre/, Окан Ялабик /Okan Yalabik/, Сельма Эргеч /Selma Erge—/, Халит Эргенч /Halit Ergen—/, Филиз Ахмет /Filiz Ahmet/

О фильме:
Сюжет основан на реальных событиях, произошедших во времена правления султана Сулеймана I, и расказывает о периоде жизни девушки Роксоланы, взятой в плен турками и названной Хюррем. Позже она стала первой официальной женой Сулеймана, но для этого ей пришлось пройти сложный путь

Страна: Турция
Продолжительность: ~ 100 минут серия
Перевод: Любительский (одноголосый, закадровый) [turok1990]
Переводчик с турецкого языка: Елена -ELVAN- Белова.

Файл
Кодек: DivX / MP3
Качество: HDTVRip
Видео: DivX, 720x408 (1.76:1), 25.000 fps, ~1200 kbps, ~0.16 bit/pixel
Звук: MP3, 48 kHz, 2 ch, ~256 kbps



23.06.2013 г. торент обновлён, добавлена 103 серия!
General
Complete name : /media/vek_sezon_3_turok1990/64.Muhtesem_Yuzyil_turok1990.avi
Format : AVI
Format/Info : Audio Video Interleave
File size : 1.12 GiB
Duration : 1h 49mn
Overall bit rate : 1 464 Kbps
Writing library : TMPGEnc 4.0 XPress Version. 4.6.3.267

Video
ID : 0
Format : MPEG-4 Visual
Format settings, BVOP : Yes
Format settings, QPel : No
Format settings, GMC : No warppoints
Format settings, Matrix : Default (H.263)
Codec ID : DX50
Codec ID/Hint : DivX 5
Duration : 1h 49mn
Bit rate : 1 196 Kbps
Width : 720 pixels
Height : 408 pixels
Display aspect ratio : 16:9
Frame rate : 25.000 fps
Color space : YUV
Chroma subsampling : 4:2:0
Bit depth : 8 bits
Scan type : Progressive
Compression mode : Lossy
Bits/(Pixel*Frame) : 0.163
Stream size : 936 MiB (82%)
Writing library : DivX 6.8.5 (UTC 2009-08-20)

Audio
ID : 1
Format : MPEG Audio
Format version : Version 1
Format profile : Layer 3
Codec ID : 55
Codec ID/Hint : MP3
Duration : 1h 49mn
Bit rate mode : Constant
Bit rate : 256 Kbps
Channel(s) : 2 channels
Sampling rate : 48.0 KHz
Compression mode : Lossy
Stream size : 201 MiB (17%)
Alignment : Aligned on interleaves
Interleave, duration : 40 ms (1.00 video frame)
Interleave, preload duration : 408 ms



Скачать Великолепный.век.Muhtesem.Yüzyil.(03x64-103).(Дурул.Тайлан.Ягмур.Тайлан).[2011-2013.драма.мелодрама.военный.биография.история.HDTVRip].[VO.(turok1990)].torrent без регистрации
Золото ЗОЛОТАЯ РАЗДАЧА! СКАЧАННОЕ НЕ ЗАСЧИТЫВАЕТСЯ! Золото
Дата: Зарегистрирован   [ Тип: внутренний ] Как тут cкачать?
MAGNET ссылка
MAGNET ссылка


Скачать .torrent

112 KB

Статус: проверено DHT
Скачан: торрент - 3820 раз, раздача полностью - 238 раз
Размер: 42,75 GB
Оценка:  4,9 (Голосов: 15)
Поблагодарили: 32
Поделиться ссылкой на эту раздачу с друзьями:
В контактеFacebookОдноклассникиTwitterLivejournalМой МирLiveinternet
 

 

МихаНЕзатор

[] 

Разадача обновлена
 

KIT

[] 

долго новых серий нет ac
 
Показать сообщения:    


Вы не можете начинать темы
Вы не можете отвечать на сообщения
Вы не можете редактировать свои сообщения
Вы не можете удалять свои сообщения
Вы не можете голосовать в опросах
Вы не можете прикреплять файлы к сообщениям
Вы можете скачивать файлы