Loading...
Error

Скачать Месть / Revenge (Сезон 1 полный) (Мэтт Эрл Бисли, Филлип Нойс) [2011 г., драма, WEB-DL] [720p] [DVO] (NewStudio) торрент без регистрации

 
Статистика раздачи
Размер:  31,9 GB   |    Скачан:  170 раз
Сидов:  1  [  0 KB/s  ]  
 
Автор Сообщение

leon030982

[] 


Возмездие / Revenge
Год выпуска: 2011
Страна: США

Жанр: драма
Продолжительность: 45 мин
Перевод: Профессиональный двухголосый закадровый(NewStudio)
Субтитры: Russian (Forced)
Режиссер: Мэтт Эрл Бисли, Филлип Нойс
В ролях:
Эмили ВанКэмп (Эмили Торн), Робби Амелл (Adam), Макс Мартини (Frank Stevens), Стефен Эллиотт (The Body), Криста Б. Аллен (Charlotte Grayson), Mike Allison (Party Guest), Ric Bagoly (Yacht Partygoer), Джошуа Боуман (Daniel Grayson), Кристина Чанг (Karrie Thurgood), Генри Черни (Conrad Grayson), Ashley Driver (Tiffany), Кейт Харрис (Doug Reid), Эмили Элин Линд
(Abigail)
Описание:
Эмили Торн, молодая и красивая женщина которая ранее была известна под именем Аманда Кларк, приезжает в Хамптонс чтобы отомстить тем людям, которые разрушили ее семью.

Качество: WEB-DL 720p
Формат: MKV

Видео: 1280x720 (16:9), 23.976 fps, ~4000 kbps avg, 0.18 bit/pixel
Аудио Rus: 48 kHz, AC3, 3/2 (L,C,R,l,r) + LFE ch, ~384.00 kbps avg
Аудио Rus: 48 kHz, AC3, 2 ch, ~192.00 kbps avg (17-22 серии)
Аудио Eng: 48 kHz, AC3, 3/2 (L,C,R,l,r) + LFE ch, ~384.00 kbps avg
Релиз:
Озвучка:
Константин Погодаев, Ирина Воронова
Перевод: Эрадан
Редактор: GRAFT


Общее
Уникальный идентификатор : 240840414403252177961099166735435916291 (0xB5302D351E872A6E819B804456356403)
Полное имя : E:\Revenge.S01.720p.WEB-DL.Rus.Eng\Revenge.S01E01.720p.WEB-DL.Rus.Eng.HDCLUB.mkv
Формат : Matroska
Размер файла : 1,45 Гбайт
Продолжительность : 43 м.
Общий поток : 4802 Кбит/сек
Название фильма : Revenge [Season 1] (2011) - Release for HDClub by vlaluk
Дата кодирования : UTC 2011-09-28 14:41:26
Программа кодирования : mkvmerge v4.8.0 ('I Got The...') сборка от May 24 2011 03:12:58
Библиотека кодирования : libebml v1.2.0 + libmatroska v1.1.0
Видео

Идентификатор : 1
Формат : AVC
Формат/Информация : Advanced Video Codec
Профиль формата : High@L3.1
Параметр CABAC формата : Нет
Параметр ReFrames формата : 2 кадра
Идентификатор кодека : V_MPEG4/ISO/AVC
Продолжительность : 43 м.
Битрейт : 3938 Кбит/сек
Ширина : 1280 пикс.
Высота : 720 пикс.
Соотношение сторон : 16:9
Частота кадров : 23,976 кадр/сек
Цветовое пространство : YUV
Подвыборка цветности : 4:2:0
Битовая глубина : 8 бит
Тип развёртки : Прогрессивная
Бит/(Пиксели*Кадры) : 0.178
Размер потока : 1,19 Гбайт (82%)
Заголовок : Season 1, Episode 1: Pilot @ Release for HDClub by vlaluk
Язык : English
Основные цвета : BT.709-5, BT.1361, IEC 61966-2-4, SMPTE RP177
Характеристики трансфера : BT.709-5, BT.1361
Коэффициенты матрицы : BT.709-5, BT.1361, IEC 61966-2-4 709, SMPTE RP177
Аудио #1
Идентификатор : 2
Формат : AC-3
Формат/Информация : Audio Coding 3
Расширение режима : CM (complete main)
Идентификатор кодека : A_AC3
Продолжительность : 43 м.
Вид битрейта : Постоянный
Битрейт : 384 Кбит/сек
Каналы : 6 каналов
Расположение каналов : Front: L C R, Side: L R, LFE
Частота : 48,0 КГц
Битовая глубина : 16 бит
Метод сжатия : С потерями
Размер потока : 118 Мбайт (8%)
Заголовок : DD 5.1 @ 384 kbps @ NewStudio
Язык : Russian
Аудио #2
Идентификатор : 3
Формат : AC-3
Формат/Информация : Audio Coding 3
Расширение режима : CM (complete main)
Идентификатор кодека : A_AC3
Продолжительность : 43 м.
Вид битрейта : Постоянный
Битрейт : 384 Кбит/сек
Каналы : 6 каналов
Расположение каналов : Front: L C R, Side: L R, LFE
Частота : 48,0 КГц
Битовая глубина : 16 бит
Метод сжатия : С потерями
Размер потока : 118 Мбайт (8%)
Заголовок : DD 5.1 @ 384 kbps
Язык : English
Текст
Идентификатор : 4
Формат : UTF-8
Идентификатор кодека : S_TEXT/UTF8
Идентификатор кодека/Информация : UTF-8 Plain Text
Заголовок : Russian @ SRT @ Forced
Язык : Russian



Скачать Месть.Revenge.(Сезон.1.полный).(Мэтт.Эрл.Бисли.Филлип.Нойс).[2011.г.драма.WEB-DL].[720p].[DVO].(NewStudio).torrent без регистрации
Золото ЗОЛОТАЯ РАЗДАЧА! СКАЧАННОЕ НЕ ЗАСЧИТЫВАЕТСЯ! Золото
Дата: Зарегистрирован   [ Тип: внутренний ] Как тут cкачать?
MAGNET ссылка
MAGNET ссылка


Скачать .torrent

162 KB

Статус: проверено DHT
Скачан: торрент - 170 раз, раздача полностью - 96 раз
Размер: 31,9 GB
Оценка:  5 (Голосов: 2)
Поблагодарили: 3
Поделиться ссылкой на эту раздачу с друзьями:
В контактеFacebookОдноклассникиTwitterLivejournalМой МирLiveinternet
 

 
Показать сообщения:    


Вы не можете начинать темы
Вы не можете отвечать на сообщения
Вы не можете редактировать свои сообщения
Вы не можете удалять свои сообщения
Вы не можете голосовать в опросах
Вы не можете прикреплять файлы к сообщениям
Вы можете скачивать файлы