Loading...
Error

( ) / Homeland ( 2- ) ( , , ) [2012, , , , , WEB-DL] [720p] [MVO] (LostFilm) + [DVO] ( )

 
22,9 GB   |    :  5676
1  [  0 KB/s  ]  
 

leon030982

[] 


( ) / Homeland
2:

: 2012
:
: , , ,
: ~00:55:00
1: - LostFilm
2: -

: , ,

: , , , , , , , , ,

: , , , , .


: http://multi-up.com/769802
: WEB-DL 720p
: MKV
: H.264
: AC3
: 1280x720 at 23.976 fps, MPEG-4 AVC, ~4000 kbps avg, 0.18 bit/pixel
#1: Russian: 48 kHz, AC3, 3/2 (L,C,R,l,r) + LFE ch, ~384.00 kbps avg | , LostFilm|
#2: Russian: 48 kHz, AC3, 3/2 (L,C,R,l,r) + LFE ch, ~384.00 kbps avg | , |
#3: English: 48 kHz, AC3, 3/2 (L,C,R,l,r) + LFE ch, ~384.00 kbps avg
: Russian, English
01: The Smile /

:

General
Complete name : Homeland.S02E01.720p.WEB-DL.2xRus.Eng.HDCLUB.mkv
Format : Matroska
Format version : Version 2
File size : 2.01 GiB
Duration : 55mn 20s
Overall bit rate : 5 194 Kbps
Movie name : Homeland [Season 2] (2012) - Release for HDCLUB
Encoded date : UTC 2012-10-03 21:13:40
Writing application : mkvmerge v5.8.0 ('No Sleep / Pillow') built on Sep 2 2012 15:37:04
Writing library : libebml v1.2.3 + libmatroska v1.3.0
Video
ID : 1
Format : AVC
Format/Info : Advanced Video Codec
Format profile : High@L3.1
Format settings, CABAC : No
Format settings, ReFrames : 2 frames
Format settings, GOP : N=1
Codec ID : V_MPEG4/ISO/AVC
Duration : 55mn 20s
Bit rate : 3 938 Kbps
Width : 1 280 pixels
Height : 720 pixels
Display aspect ratio : 16:9
Frame rate : 23.976 fps
Color space : YUV
Chroma subsampling : 4:2:0
Bit depth : 8 bits
Scan type : Progressive
Bits/(Pixel*Frame) : 0.178
Stream size : 1.52 GiB (76%)
Title : Homeland 2x01: The Smile / - Release for HDCLUB
Language : English
Default : Yes
Forced : No
Color primaries : BT.709-5, BT.1361, IEC 61966-2-4, SMPTE RP177
Transfer characteristics : BT.709-5, BT.1361
Matrix coefficients : BT.709-5, BT.1361, IEC 61966-2-4 709, SMPTE RP177
Audio #1
ID : 2
Format : AC-3
Format/Info : Audio Coding 3
Mode extension : CM (complete main)
Format settings, Endianness : Big
Codec ID : A_AC3
Duration : 55mn 20s
Bit rate mode : Constant
Bit rate : 384 Kbps
Channel(s) : 6 channels
Channel positions : Front: L C R, Side: L R, LFE
Sampling rate : 48.0 KHz
Bit depth : 16 bits
Compression mode : Lossy
Stream size : 152 MiB (7%)
Title : LostFilm
Language : English
Default : Yes
Forced : No
Audio #2
ID : 3
Format : AC-3
Format/Info : Audio Coding 3
Mode extension : CM (complete main)
Format settings, Endianness : Big
Codec ID : A_AC3
Duration : 55mn 20s
Bit rate mode : Constant
Bit rate : 384 Kbps
Channel(s) : 6 channels
Channel positions : Front: L C R, Side: L R, LFE
Sampling rate : 48.0 KHz
Bit depth : 16 bits
Compression mode : Lossy
Stream size : 152 MiB (7%)
Title :
Language : Russian
Default : No
Forced : No
Audio #3
ID : 4
Format : AC-3
Format/Info : Audio Coding 3
Mode extension : CM (complete main)
Format settings, Endianness : Big
Codec ID : A_AC3
Duration : 55mn 20s
Bit rate mode : Constant
Bit rate : 384 Kbps
Channel(s) : 6 channels
Channel positions : Front: L C R, Side: L R, LFE
Sampling rate : 48.0 KHz
Bit depth : 16 bits
Compression mode : Lossy
Stream size : 152 MiB (7%)
Language : English
Default : No
Forced : No
Text #1
ID : 5
Format : UTF-8
Codec ID : S_TEXT/UTF8
Codec ID/Info : UTF-8 Plain Text
Language : Russian
Default : No
Forced : No
Text #2
ID : 6
Format : UTF-8
Codec ID : S_TEXT/UTF8
Codec ID/Info : UTF-8 Plain Text
Language : English
Default : No
Forced : No
! , . , :
(1) ,
(2) ( ),
(3) , .
() ( - ), . , !
, , . , , .



.(..).Homeland.(.2-.).(.....).[2012.....WEB-DL].[720p].[MVO].(LostFilm).+.[DVO].(..).torrent
  ! ! 
:   [ : ] c?
MAGNET
MAGNET


.torrent

116 KB

: DHT
: - 5676 , - 55
: 22,9 GB
4,8 (: 5)
: 10
:
 FacebookTwitterLivejournal Liveinternet
 

 

Wolend

[] 

Goldenshare .

leon030982, .
 
: