Loading...
Error

Скачать Кости / Bones (сезон 08) (Стивен ДеПол, Йен Тойнтон, Аллен Крокер) [2012, драма, мелодрама, комедия, криминал, детектив, WEB-DLRip] [MVO (BaibaKo)] торрент без регистрации

 
Статистика раздачи
Размер:  13,86 GB   |    Скачан:  425 раз
Сидов:  1  [  0 KB/s  ]  
 
Автор Сообщение

МихаНЕзатор

[] 

Название: Кости
Оригинальное название: Bones
Год выпуска: 2012
Жанр: драма, детектив
Режиссер: Иэн Тойнтон
В ролях: Эмили Дешанель, Дэвид Бореаназ, Микаэла Конлин, Тамара Тэйлор, Томас Джозеф Тайн, Джон Фрэнсис Дэйли и др.

Описание: Доктор Темперанс Бреннан, блестящий, но одинокий антрополог получает то, чего она меньше всего желала напарника. Бюро посылает ей амбициозного агента ФБР Сили Бута, чтобы помочь в расследовании нераскрытых дел путем изучения и идентификации костей давно пропавших людей.

Но давно умершие жертвы не единственное, с чем придется столкнуться Боунс, Буту и их команде, раскрывая преступления они часто сталкиваются с взяточничеством, коррупцией и местной разрозненностью.



Страна: США
Продолжительность: 10 x ~ 00:45:00
Перевод: Профессиональный (многоголосый, закадровый) - Baibako
Субтитры: Нет

Качество: WEB-DLRip
Формат: AVI
Видео: XviD, ~ 1509 Кбит/с, 720x400
Аудио rus: MP3, 2 ch, 192 Кбит/с
Аудио eng: MP3, 2 ch, 192 Кбит/с

Релиз от:

18.07.2013 г. торент обновлён, добавлена 23-24 серия!

01. Будущее в прошлом / The Future in the Past
02. Партнеры в разводе / The Partners in the Divorce
03. Месиво в гараже / The Gunk in the Garage
04. Тигр в сказке / The Tiger In The Tale
05. Метод на грани безумия / Method to the Madness
06. Патриот в чистилище / The Patriot in Purgatory
07. Гуманоид в коконе / The Bod in the Pod
08. Шутка, но всерьез / The But in the Joke
09. Призрак в машине / Ghost in the Machine
10. Алмаз неограненый / The Diamond in the Rough
11. Археолог в коконе / The Archaeologist in the Cocoon
12. Труп над кроватью / The Corpse on the Canopy
13. Поворот сюжета / The Twist in the Plot
14. Кукла в дебрях / The Doll in the Derby
15. Выстрел в темноте / The Shot in the Dark
16. Друг в беде / The friend in need
17. Фантастический факт / The Fact in the Fiction
18. The Survivor in the Soap
19. The Doom in the Gloom
20. The Blood from the Stones
21. The Maiden in the Mushrooms
22. The Party in the Pants
23. Пафос в патогенах / The Pathos in the Pathogens
24. Должностная тайна / The Secret in the Siege

Перевод: Lub_a
Озвучка: Лира Грим, Светлана Доманова, Татьяна Оболевич, Руслан Иванов и Алексей Кузнецов
Монтаж: Vitall Digitall
Обложка: tvblog
Формат : AVI
Формат/Информация : Audio Video Interleave
Размер файла : 589 Мбайт
Продолжительность : 43 м.
Общий поток : 1902 Кбит/сек

Видео
Идентификатор : 0
Формат : MPEG-4 Visual
Профиль формата : Advanced Simple@L5
Параметр BVOP формата : 2
Параметр QPel формата : Нет
Параметр GMC формата : Без точки перехода
Параметр матрицы формата : Default (H.263)
Идентификатор кодека : XVID
Идентификатор кодека/Подсказка : XviD
Продолжительность : 43 м.
Битрейт : 1511 Кбит/сек
Ширина : 720 пикс.
Высота : 400 пикс.
Соотношение сторон : 16:9
Частота кадров : 23,976 кадр/сек
Цветовое пространство : YUV
Подвыборка цветности : 4:2:0
Битовая глубина : 8 бит
Тип развёртки : Прогрессивная
Метод сжатия : С потерями
Бит/(Пиксели*Кадры) : 0.219
Размер потока : 468 Мбайт (79%)
Библиотека кодирования : XviD 1.2.1 (UTC 2008-12-04)

Аудио #1
Идентификатор : 1
Формат : MPEG Audio
Версия формата : Version 1
Профиль формата : Layer 3
Режим : Joint stereo
Идентификатор кодека : 55
Идентификатор кодека/Подсказка : MP3
Продолжительность : 43 м.
Вид битрейта : Постоянный
Битрейт : 192 Кбит/сек
Каналы : 2 канала
Частота : 48,0 КГц
Метод сжатия : С потерями
Размер потока : 59,4 Мбайт (10%)
Выравнивание : Соединение по промежуткам
Продолжительность промежутка : 167 мс. (4,00 видеокадра)
Время предзагрузки промежутка : 216 ms
Заголовок : Bones.s08e10.WEB-DLRip.x264.Rus.Eng.BaibaKo.tv.mp4_track_1_russian_audio
Библиотека кодирования : LAME3.99r
Настройки программы : -m j -V 4 -q 2 -lowpass 18.6 -b 192

Аудио #2
Идентификатор : 2
Формат : MPEG Audio
Версия формата : Version 1
Профиль формата : Layer 3
Режим : Joint stereo
Расширение режима : MS Stereo
Идентификатор кодека : 55
Идентификатор кодека/Подсказка : MP3
Продолжительность : 43 м.
Вид битрейта : Постоянный
Битрейт : 192 Кбит/сек
Каналы : 2 канала
Частота : 48,0 КГц
Метод сжатия : С потерями
Размер потока : 59,4 Мбайт (10%)
Выравнивание : Соединение по промежуткам
Продолжительность промежутка : 167 мс. (4,00 видеокадра)
Время предзагрузки промежутка : 216 ms
Заголовок : Bones.s08e10.WEB-DLRip.x264.Rus.Eng.BaibaKo.tv.mp4_track_2_english_audio
Библиотека кодирования : LAME3.99r
Настройки программы : -m j -V 4 -q 2 -lowpass 18.6 -b 192



Скачать Кости.Bones.(сезон.08).(Стивен.ДеПол.Йен.Тойнтон.Аллен.Крокер).[2012.драма.мелодрама.комедия.криминал.детектив.WEB-DLRip].[MVO.(BaibaKo)].torrent без регистрации
Золото ЗОЛОТАЯ РАЗДАЧА! СКАЧАННОЕ НЕ ЗАСЧИТЫВАЕТСЯ! Золото
Дата: Зарегистрирован   [ Тип: внутренний ] Как тут cкачать?
MAGNET ссылка
MAGNET ссылка


Скачать .torrent

37 KB

Статус: проверено DHT
Скачан: торрент - 425 раз, раздача полностью - 38 раз
Размер: 13,86 GB
Оценка:  5 (Голосов: 1)
Поблагодарили: 6
Поделиться ссылкой на эту раздачу с друзьями:
В контактеFacebookОдноклассникиTwitterLivejournalМой МирLiveinternet
 

 

МихаНЕзатор

[] 

Раздача обновлена
 
Показать сообщения:    


Вы не можете начинать темы
Вы не можете отвечать на сообщения
Вы не можете редактировать свои сообщения
Вы не можете удалять свои сообщения
Вы не можете голосовать в опросах
Вы не можете прикреплять файлы к сообщениям
Вы можете скачивать файлы