Loading...
Error

Скачать Адвокат дьявола / The Devil's Advocate (Тейлор Хекфорд / Taylor Hackford) [1997, триллер, драма, детектив, мистика, BDRip] [UNRATED] [AVO] (Гаврилов) торрент без регистрации

 
Статистика раздачи
Размер:  1,46 GB   |    Скачан:  172 раза
Сидов:  1  [  0 KB/s  ]  
 
Автор Сообщение

leon030982

[] 

Адвокат дьявола /

Расширенная версия / Unrated
«У зла свой путь к победе»
Страна: США
Жанр: фантастика, фэнтези, боевик, приключения
Студия: Warner Bros. Pictures, New Regency Pictures
Год выпуска: 1997
Продолжительность: 02:23:55
Перевод: авторский (одноголосый закадровый)
Субтитры: нет
Режиссёр: Тейлор Хэкфорд / Taylor Hackford
В ролях: Киану Ривз (Kevin Lomax), Аль Пачино (John Milton), Шарлиз Терон (Mary Ann Lomax), Джеффри Джонс (Eddie Barzoon), Джудит Айви (Mrs. Alice Lomax), Конни Нильсен (Christabella Andreoli), Крэйг Т. Нельсон (Alexander Cullen), Тамара Тюни (Mrs. Jackie Heath), Рубен Сантьяго-Хадсон (Leamon Heath), Дебра Монк (Pam Garrety), Вито Руджинис (Mitch Weaver - Justice Department), Лора Хэррингтон (Melissa Black).
Описание:

В Нью-Йорк по приглашению главы крупного юридического концерна прибывает Кевин Ломакс, молодой адвокат. До этого он был известен тем, что защищал исключительно негодяев и притом не проиграл не одного процесса. На новом месте работы он вполне счастлив, он живет в роскошной квартире с любящей женой, его окружают интересные люди.
Но вскоре ситуация неуловимо меняется, происходят странные и зловещие события: внезапно погибает один из его коллег, затем кончает самоубийством его жена. Кевин, догадываясь, в чем тут дело, приходит к шефу концерна Джону Милтону... Последний же имеет еще и другое имя - он сам Сатана, и он намерен объяснить молодому человеку, зачем его пригласили в Нью-Йорк...

7.4/10 (139507) 8.295 (88135)

Качество видео: BDRip

Формат файла: AVI
Видео: XviD, 720x304 (2.35:1), 23.976 fps, 1252 kbps avg, 0.263 bit/pixel
Аудио: 48 kHz, AC3 Dolby Digital, 2/0 (L,R) ch, 192 kbps avg (Rus AVO Гаврилов)
Общее
Полное имя : D:\Torrent Rutracker\Advokat.Dyavola.1997.AVO.Gavrilov.XviD.AC3.BDRip._by.ZNG505_.avi
Формат : AVI
Формат/Информация : Audio Video Interleave
Размер файла : 1,46 Гбайт
Продолжительность : 2 ч. 23 м.
Общий поток : 1453 Кбит/сек
Программа кодирования : VirtualDubMod 1.5.10.3 | www.virtualdub-fr.org || (build 2550/release)
Библиотека кодирования : VirtualDubMod build 2550/release
Видео
Идентификатор : 0
Формат : MPEG-4 Visual
Профиль формата : Advanced Simple@L5
Параметр BVOP формата : 2
Параметр QPel формата : Нет
Параметр GMC формата : Без точки перехода
Параметр матрицы формата : Выборочная
Идентификатор кодека : XVID
Идентификатор кодека/Подсказка : XviD
Продолжительность : 2 ч. 23 м.
Битрейт : 1252 Кбит/сек
Ширина : 720 пикселей
Высота : 304 пикселя
Соотношение сторон : 2,35:1
Частота кадров : 23,976 кадра/сек
Цветовое пространство : YUV
Субдискретизация насыщенности : 4:2:0
Битовая глубина : 8 бит
Тип развёртки : Прогрессивная
Метод сжатия : С потерями
Бит/(Пиксели*Кадры) : 0.239
Размер потока : 1,26 Гбайт (86%)
Библиотека кодирования : XviD 65
Аудио
Идентификатор : 1
Формат : AC-3
Формат/Информация : Audio Coding 3
Расширение режима : CM (complete main)
Идентификатор кодека : 2000
Продолжительность : 2 ч. 23 м.
Вид битрейта : Постоянный
Битрейт : 192 Кбит/сек
Каналы : 2 канала
Расположение каналов : Front: L R
Частота : 48,0 КГц
Битовая глубина : 16 бит
Метод сжатия : С потерями
Размер потока : 198 Мбайт (13%)
Выравнивание : Разделение по промежуткам
Продолжительность промежутка : 42 мс. (1,00 видеокадр)
Время предзагрузки промежутка : 500 мс.



Скачать Адвокат.дьявола.The.Devil's.Advocate.(Тейлор.Хекфорд.Taylor.Hackford).[1997.триллер.драма.детектив.мистика.BDRip].[UNRATED].[AVO].(Гаврилов).torrent без регистрации
Золото ЗОЛОТАЯ РАЗДАЧА! СКАЧАННОЕ НЕ ЗАСЧИТЫВАЕТСЯ! Золото
Дата: Зарегистрирован   [ Тип: внутренний ] Как тут cкачать?
MAGNET ссылка
MAGNET ссылка


Скачать .torrent

15 KB

Статус: проверено DHT
Скачан: торрент - 172 раз, раздача полностью - 51 раз
Размер: 1,46 GB
Оценка:  5 (Голосов: 1)
Поблагодарили: 2
Поделиться ссылкой на эту раздачу с друзьями:
В контактеFacebookОдноклассникиTwitterLivejournalМой МирLiveinternet
 

 

leon030982

[] 

фильм в своём жанре шедевр bs однозначно рекомендую к просмотру ab
 
Показать сообщения:    


Вы не можете начинать темы
Вы не можете отвечать на сообщения
Вы не можете редактировать свои сообщения
Вы не можете удалять свои сообщения
Вы не можете голосовать в опросах
Вы не можете прикреплять файлы к сообщениям
Вы можете скачивать файлы