Loading...
Error

Скачать Волки (Александр Колбышев) [2009, драма, DVDRip] [Оригинал] торрент без регистрации

 
Статистика раздачи
Размер:  745 MB   |    Скачан:  127 раз
Сидов:  1  [  0 KB/s  ]  
 
Автор Сообщение

Marsianka

[] 

Страна: Белоруссия
Жанр: драма
Год выпуска: 2009
Продолжительность: 01:45:47

Перевод: не требуется
Cубтитры: нет
Оригинальная аудиодорожка: русский

Режиссеры: Александр Колбышев

В ролях: Дмитрий Ульянов, Андрей Панин, Коля Спиридонов, Владимир Гостюхин, Тамара Миронова, Сергей Власов, Оксана Лесная, Галина Кухальская, Светлана Никифорова, Зинаида Зубкова...

Описание: Побег арестанта Кирилла Полетаева ставит в сложную ситуацию дорогих ему людей. Каждый из них, ни на секунду не задумываясь, делает все возможное и невозможное, чтобы помочь ему, зная, что заплатит за это самую дорогую цену свою жизнь.

Исходник: DVD5 R5
Качество: DVDRip
Формат: AVI

Видео: 640x352 (16:9), 25.000 fps, XviD MPEG-4 ~ 847 kbps avg, 0.150 bit/pixel
Аудио: 48 kHz, Dolby MP3, 2 ch, 128.00 kbps Constant

Раздача от:

Общее
Полное имя : Volki.2009.O.DVDRip_[Youtracker]_by_AVPSudio.avi
Формат : AVI
Формат/Информация : Audio Video Interleave
Размер файла : 745 Мбайт
Продолжительность : 1 ч. 45 м.
Общий поток : 985 Кбит/сек
Программа кодирования : VirtualDubMod 1.5.10.3 | www.virtualdub-fr.org || (build 2550/release)
Библиотека кодирования : VirtualDubMod build 2550/release

Видео
Идентификатор : 0
Формат : MPEG-4 Visual
Профиль формата : Advanced Simple@L5
Параметр BVOP формата : 1
Параметр QPel формата : Нет
Параметр GMC формата : Без точки перехода
Параметр матрицы формата : Выборочная
Идентификатор кодека : XVID
Идентификатор кодека/Подсказка : XviD
Продолжительность : 1 ч. 45 м.
Битрейт : 847 Кбит/сек
Ширина : 640 пикселей
Высота : 352 пикселя
Соотношение сторон : 16:9
Частота кадров : 25,000 кадров/сек
Цветовое пространство : YUV
Субдискретизация насыщенности : 4:2:0
Битовая глубина : 8 бит
Тип развёртки : Прогрессивная
Метод сжатия : С потерями
Бит/(Пиксели*Кадры) : 0.150
Размер потока : 641 Мбайт (86%)
Библиотека кодирования : XviD 65

Аудио
Идентификатор : 1
Формат : MPEG Audio
Версия формата : Version 1
Профиль формата : Layer 3
Идентификатор кодека : 55
Идентификатор кодека/Подсказка : MP3
Продолжительность : 1 ч. 45 м.
Вид битрейта : Постоянный
Битрейт : 128 Кбит/сек
Каналы : 2 канала
Частота : 48,0 КГц
Метод сжатия : С потерями
Размер потока : 96,8 Мбайт (13%)
Выравнивание : Соединение по промежуткам
Продолжительность промежутка : 40 мс. (1,00 видеокадр)
Время предзагрузки промежутка : 504 мс.
Библиотека кодирования : L3.99r
Настройки программы : -m s -V 4 -q 2 -lowpass 17 -b 128



Скачать Волки.(Александр.Колбышев).[2009.драма.DVDRip].[Оригинал].torrent без регистрации
Золото ЗОЛОТАЯ РАЗДАЧА! СКАЧАННОЕ НЕ ЗАСЧИТЫВАЕТСЯ! Золото
Дата: Зарегистрирован   [ Тип: внутренний ] Как тут cкачать?
MAGNET ссылка
MAGNET ссылка


Скачать .torrent

15 KB

Статус: проверено DHT
Скачан: торрент - 127 раз, раздача полностью - 39 раз
Размер: 745 MB
Оценка:  - (Голосов: 0)
Поблагодарили: 3
Поделиться ссылкой на эту раздачу с друзьями:
В контактеFacebookОдноклассникиTwitterLivejournalМой МирLiveinternet
 

 
Показать сообщения:    


Вы не можете начинать темы
Вы не можете отвечать на сообщения
Вы не можете редактировать свои сообщения
Вы не можете удалять свои сообщения
Вы не можете голосовать в опросах
Вы не можете прикреплять файлы к сообщениям
Вы можете скачивать файлы