Loading...
Error

Скачать 7 гномов - И леса им мало / 7 Zwerge - Der Wald ist nicht genug / 7 Dwarves: The Forest Is Not Enough (Свен Унтервальд / Sven Unterwaldt) [2006, Комедия, Пародия, DVDRip] [DVO] (JuiceTime) торрент без регистрации

 
Статистика раздачи
Размер:  1,25 GB   |    Скачан:  121 раз
Сидов:  1  [  0 KB/s  ]  
 
Автор Сообщение

leon030982

[] 

7 гномов - И леса им мало / 7 Zwerge - Der Wald ist nicht genug / 7 Dwarves: The Forest Is Not Enough


Год выпуска: 2006
Страна: Германия
Жанр: Комедия, Пародия
Продолжительность: 01:31:17
Перевод: Любительский (двухголосый закадровый) [JuiceTime]
Текст читали: SPtrue, pantera
Cубтитры: нет

Режиссер: Свен Унтервальд / Sven Unterwaldt
В ролях: Борис Альинович, Ральф Шмитц, Гюстав-Петер Волер. Мартин Шнайдер, Норберт Хейстеркамп, Отто Ваалкес, Нина Хаген, Косма Шива Хэйген, Аксель Нойманн
Описание: 7 маленьких мужчин-гномов живут в Очарованном лесу. Вскоре в их владениях появляется прекрасная из прекрасных — Белоснежка. Очарованные юной красотой, гномы, все как один, теряют рассудок перед ее очарованием. Но однажды Белоснежку похищает злая королева. Семеро мужчин собираются вернуть свое счастье, и они не перед чем не остановятся…

Сэмпл: http://multi-up.com/770457
Качество видео: DVDRip
Формат видео: AVI
Видео: XviD 1.2 beta 1 (build 43) 720x298 25.00fps 1754 kbps avg 0.33 bit/pixel
Аудио: MP3, 44.1 KHz, 192 kbps, 2 channels
Формат : AVI
Формат/Информация : Audio Video Interleave
Размер файла : 1,25 Гбайт
Продолжительность : 1 ч. 31 м.
Общий поток : 1957 Кбит/сек
Программа кодирования : VirtualDubMod 1.5.10.2 (build 2540/release)
Библиотека кодирования : VirtualDubMod build 2540/release
Видео
Идентификатор : 0
Формат : MPEG-4 Visual
Профиль формата : Advanced Simple@L5
Параметр BVOP формата : 2
Параметр QPel формата : Нет
Параметр GMC формата : Без точки перехода
Параметр матрицы формата : Default (H.263)
Идентификатор кодека : XVID
Идентификатор кодека/Подсказка : XviD
Продолжительность : 1 ч. 31 м.
Битрейт : 1755 Кбит/сек
Ширина : 720 пикселей
Высота : 298 пикселей
Соотношение сторон : 2,40:1
Частота кадров : 25,000 кадров/сек
Цветовое пространство : YUV
Субдискретизация насыщенности : 4:2:0
Битовая глубина : 8 бит
Тип развёртки : Прогрессивная
Метод сжатия : С потерями
Бит/(Пиксели*Кадры) : 0.327
Размер потока : 1,12 Гбайт (90%)
Библиотека кодирования : XviD 1.2.0SMP (UTC 2006-01-08)
Аудио
Идентификатор : 1
Формат : MPEG Audio
Версия формата : Version 1
Профиль формата : Layer 3
Идентификатор кодека : 55
Идентификатор кодека/Подсказка : MP3
Продолжительность : 1 ч. 31 м.
Вид битрейта : Постоянный
Битрейт : 192 Кбит/сек
Каналы : 2 канала
Частота : 44,1 КГц
Метод сжатия : С потерями
Размер потока : 125 Мбайт (10%)
Выравнивание : Разделение по промежуткам
Продолжительность промежутка : 40 мс. (1,00 видеокадр)
Время предзагрузки промежутка : 500 мс.



Скачать 7.гномов.-.И.леса.им.мало.7.Zwerge.-.Der.Wald.ist.nicht.genug.7.Dwarves.The.Forest.Is.Not.Enough.(Свен.Унтервальд.Sven.Unterwaldt).[2006.Комедия.Пародия.DVDRip].[DVO].(JuiceTime).torrent без регистрации
Золото ЗОЛОТАЯ РАЗДАЧА! СКАЧАННОЕ НЕ ЗАСЧИТЫВАЕТСЯ! Золото
Дата: Зарегистрирован   [ Тип: внутренний ] Как тут cкачать?
MAGNET ссылка
MAGNET ссылка


Скачать .torrent

13 KB

Статус: проверено DHT
Скачан: торрент - 121 раз, раздача полностью - 86 раз
Размер: 1,25 GB
Оценка:  - (Голосов: 0)
Поблагодарили: 1
Поделиться ссылкой на эту раздачу с друзьями:
В контактеFacebookОдноклассникиTwitterLivejournalМой МирLiveinternet
 

 
Показать сообщения:    


Вы не можете начинать темы
Вы не можете отвечать на сообщения
Вы не можете редактировать свои сообщения
Вы не можете удалять свои сообщения
Вы не можете голосовать в опросах
Вы не можете прикреплять файлы к сообщениям
Вы можете скачивать файлы