Loading...
Error

Скачать Улика / Clue (Джонатан Линн) [1985, триллер, комедия, криминал, детектив, BDRip] [MVO]+[Оригинал] торрент без регистрации

 
Статистика раздачи
Размер:  1,44 GB   |    Скачан:  121 раз
Сидов:  1  [  0 KB/s  ]  
 
Автор Сообщение

Marsianka

[] 

Улика / Clue (1985) BDRip

Информация о фильме
Название: Улика
Оригинальное название: Clue
Год выхода: 1985
Жанр: триллер, комедия, криминал, детектив
Режиссер: Джонатан Линн
В ролях: Айлин Бреннан, Тим Карри, Мэдлин Кан, Кристофер Ллойд, Майкл МакКин, Мартин Мулл, Лесли Энн Уоррен, Коллин Кэмп, Ли Винг, Билл Хендерсон ...

О фильме:
Семь неизменных персонажей: гости, приглашенные в дом мистер Грин, профессор Плам, миссис Пикок, полковник Мастард, миссис Уайт приезжают в загородное поместье, где их встречают дворецкий Уодсворт и хозяин дома, мистер Бодди, с убийства которого и начинается самое интересное.

Гостям во главе с неутомимым дворецким (или вовсе не дворецким) предстоит «вычислить» таинственного убийцу. У каждого, как выясняется, есть свой мотив, свое орудие преступления. Это может быть канделябр, отрезок трубы, гаечный ключ, веревка, револьвер или нож. У каждого из подозреваемых своя страшная тайна.

По мере того, как гости изучают дом и друг друга, в особняке появляются новые люди, с первого взгляда непричастные к делу, но которых, как это ни прискорбно, ждёт печальная участь мистера Бодди.



Страна: США
Продолжительность: 01:32:53
Перевод: Многоголосый закадровый (профессиональный), Оригинал (Английский)

Файл
Кодек: XviD
Качество: BDRip
Видео: 720x400 (1.80:1), 25,000 fps, 1825 kbps, 0.253 bit/pixel
Аудио #1: 48 kHz, AC3, 2/0 (L,R) ch, 192.00 kbps (Русский)
Аудио #2: 48 kHz, AC3, 2/0 (L,R) ch, 192.00 kbps (Английский)

Общее
Полное имя : D:Clue.1985.BDRip.avi
Формат : AVI
Формат/Информация : Audio Video Interleave
Размер файла : 1,44 Гбайт
Продолжительность : 1 ч. 32 м.
Общий поток : 2223 Кбит/сек
Название фильма : Улика / Clue (1985) BDRip
Программа кодирования : VirtualDubModRus 1.5.10.2 (build 2542/release)
Библиотека кодирования : VirtualDubMod build 2542/release
Правообладатель : rip by Rulya74

Видео
Идентификатор : 0
Формат : MPEG-4 Visual
Профиль формата : Simple@L5
Параметр BVOP формата : Нет
Параметр QPel формата : Нет
Параметр GMC формата : Без точки перехода
Параметр матрицы формата : Default (H.263)
Идентификатор кодека : XVID
Идентификатор кодека/Подсказка : XviD
Продолжительность : 1 ч. 32 м.
Битрейт : 1825 Кбит/сек
Ширина : 720 пикселей
Высота : 400 пикселей
Соотношение сторон : 16:9
Частота кадров : 25,000 кадров/сек
Цветовое пространство : YUV
Субдискретизация насыщенности : 4:2:0
Битовая глубина : 8 бит
Тип развёртки : Прогрессивная
Метод сжатия : С потерями
Бит/(Пиксели*Кадры) : 0.253
Размер потока : 1,18 Гбайт (82%)
Библиотека кодирования : XviD 65

Аудио #1
Идентификатор : 1
Формат : AC-3
Формат/Информация : Audio Coding 3
Расширение режима : CM (complete main)
Идентификатор кодека : 2000
Продолжительность : 1 ч. 32 м.
Вид битрейта : Постоянный
Битрейт : 192 Кбит/сек
Каналы : 2 канала
Расположение каналов : Front: L R
Частота : 48,0 КГц
Битовая глубина : 16 бит
Метод сжатия : С потерями
Задержка видео : 2 с. 468 мс.
Размер потока : 127 Мбайт (9%)
Выравнивание : Разделение по промежуткам
Продолжительность промежутка : 40 мс. (1,00 видеокадр)
Время предзагрузки промежутка : 500 мс.
Заголовок : Многоголосый закадровый (профессиональный)

Аудио #2
Идентификатор : 2
Формат : AC-3
Формат/Информация : Audio Coding 3
Расширение режима : CM (complete main)
Идентификатор кодека : 2000
Продолжительность : 1 ч. 32 м.
Вид битрейта : Постоянный
Битрейт : 192 Кбит/сек
Каналы : 2 канала
Расположение каналов : Front: L R
Частота : 48,0 КГц
Битовая глубина : 16 бит
Метод сжатия : С потерями
Размер потока : 128 Мбайт (9%)
Выравнивание : Разделение по промежуткам
Продолжительность промежутка : 40 мс. (1,00 видеокадр)
Время предзагрузки промежутка : 500 мс.
Заголовок : Оригинал (Английский)



Скачать Улика.Clue.(Джонатан.Линн).[1985.триллер.комедия.криминал.детектив.BDRip].[MVO]+[Оригинал].torrent без регистрации
Золото ЗОЛОТАЯ РАЗДАЧА! СКАЧАННОЕ НЕ ЗАСЧИТЫВАЕТСЯ! Золото
Дата: Зарегистрирован   [ Тип: внутренний ] Как тут cкачать?
MAGNET ссылка
MAGNET ссылка


Скачать .torrent

15 KB

Статус: проверено DHT
Скачан: торрент - 121 раз, раздача полностью - 13 раз
Размер: 1,44 GB
Оценка:  - (Голосов: 0)
Поблагодарили: 2
Поделиться ссылкой на эту раздачу с друзьями:
В контактеFacebookОдноклассникиTwitterLivejournalМой МирLiveinternet
 

 
Показать сообщения:    


Вы не можете начинать темы
Вы не можете отвечать на сообщения
Вы не можете редактировать свои сообщения
Вы не можете удалять свои сообщения
Вы не можете голосовать в опросах
Вы не можете прикреплять файлы к сообщениям
Вы можете скачивать файлы