Loading...
Error

Скачать Смерть по контракту / Morte a contratto (Giorgio Lepre /Джанни Лепре) [1993, Криминальный, TVRip] [MVO] торрент без регистрации

 
Статистика раздачи
Размер:  4,06 GB   |    Скачан:  120 раз
Сидов:  1  [  0 KB/s  ]  
 
Автор Сообщение

leon030982

[] 

Смерть по контракту / Morte a contratto / Выпущено: Radiotelevisione Italiana /RAI



Год выпуска: 1993
Страна: Италия
Жанр: Криминальный
Продолжительность: 1-ая серия - 01:39:09, 2-ая серия - 01:22:02
Перевод: Любительский (многоголосый закадровый)
Cубтитры: нет

Режиссер: Giorgio Lepre /Джанни Лепре

В ролях: Giampiero Bianchi /Джанпьеро Бьянки, Eleonora Brigliadori /Элеонора Брильядори, Ida Di Benedetto /Ида де Бенидетто, Daniela Poggi /Даниела Поджи, Andrea Prodan /Андреа Продан

Описание: Журналистка Джузи Морелли становится случайным свидетелем убийства актрисы Глории Руджери ее любовником Руджинио Манно. На месте происшествия полиция находит браслет, потерянный Джузи. Вскоре удается составить фоторобот свидетельницы, на поиски которой устремляется местная полиция, инспектор из дирекции антимафии Монтельбано и Нунцио - киллер, посланный Манно. По мотивам романа Джеймса Хэдли Чейза /James Hadley Chase "Дорога для самоубийц" (Свидетелей не будет) (Саван для свидетелей) / This Way for a Shroud


Релиз - konchita13 (Alex1808), за что ей огромное спасибо!
Сэмпл: http://multi-up.com/770657
Качество видео: TVRip
Формат видео: AVI
Видео: DX50, 720x540, 4:3, 25 кадров/сек, 3000 Кбит/сек
Аудио: MPEG Audio, 48,0 КГц, 192 Кбит/сек, 2 канала
Отчет по первой серии:
Видео
Идентификатор : 0
Формат : MPEG-4 Visual
Параметр BVOP формата : Нет
Параметр QPel формата : Нет
Параметр GMC формата : Без точки перехода
Параметр матрицы формата : Default (H.263)
Идентификатор кодека : DX50
Идентификатор кодека/Подсказка : DivX 5
Продолжительность : 1 ч. 39 м.
Битрейт : 3000 Кбит/сек
Ширина : 720 пикселей
Высота : 540 пикселей
Соотношение сторон : 4:3
Частота кадров : 25,000 кадров/сек
Цветовое пространство : YUV
Субдискретизация насыщенности : 4:2:0
Битовая глубина : 8 бит
Тип развёртки : Прогрессивная
Метод сжатия : С потерями
Бит/(Пиксели*Кадры) : 0.309
Размер потока : 2,08 Гбайт (94%)
Заголовок : Video
Библиотека кодирования : DivX 6.6.1.4
Аудио
Идентификатор : 1
Формат : MPEG Audio
Версия формата : Version 1
Профиль формата : Layer 2
Режим : Joint stereo
Расширение режима : Intensity Stereo + MS Stereo
Идентификатор кодека : 50
Продолжительность : 1 ч. 39 м.
Вид битрейта : Постоянный
Битрейт : 192 Кбит/сек
Каналы : 2 канала
Частота : 48,0 КГц
Метод сжатия : С потерями
Размер потока : 136 Мбайт (6%)
Выравнивание : Соединение по промежуткам
Продолжительность промежутка : 24 мс. (0,60 видеокадр)
Время предзагрузки промежутка : 504 мс.
Заголовок : Audio
Отчет по второй серии:
Видео
Идентификатор : 0
Формат : MPEG-4 Visual
Параметр BVOP формата : Нет
Параметр QPel формата : Нет
Параметр GMC формата : Без точки перехода
Параметр матрицы формата : Default (H.263)
Идентификатор кодека : DX50
Идентификатор кодека/Подсказка : DivX 5
Продолжительность : 1 ч. 22 м.
Битрейт : 2999 Кбит/сек
Ширина : 720 пикселей
Высота : 540 пикселей
Соотношение сторон : 4:3
Частота кадров : 25,000 кадров/сек
Цветовое пространство : YUV
Субдискретизация насыщенности : 4:2:0
Битовая глубина : 8 бит
Тип развёртки : Прогрессивная
Метод сжатия : С потерями
Бит/(Пиксели*Кадры) : 0.309
Размер потока : 1,72 Гбайт (94%)
Заголовок : Video
Библиотека кодирования : DivX 6.6.1.4
Аудио
Идентификатор : 1
Формат : MPEG Audio
Версия формата : Version 1
Профиль формата : Layer 2
Режим : Joint stereo
Расширение режима : Intensity Stereo + MS Stereo
Идентификатор кодека : 50
Продолжительность : 1 ч. 22 м.
Вид битрейта : Постоянный
Битрейт : 192 Кбит/сек
Каналы : 2 канала
Частота : 48,0 КГц
Метод сжатия : С потерями
Размер потока : 113 Мбайт (6%)
Выравнивание : Соединение по промежуткам
Продолжительность промежутка : 24 мс. (0,60 видеокадр)
Время предзагрузки промежутка : 504 мс.
Заголовок : Audio



Скачать Смерть.по.контракту.Morte.a.contratto.(Giorgio.Lepre.Джанни.Лепре).[1993.Криминальный.TVRip].[MVO].torrent без регистрации
Золото ЗОЛОТАЯ РАЗДАЧА! СКАЧАННОЕ НЕ ЗАСЧИТЫВАЕТСЯ! Золото
Дата: Зарегистрирован   [ Тип: внутренний ] Как тут cкачать?
MAGNET ссылка
MAGNET ссылка


Скачать .torrent

11 KB

Статус: проверено DHT
Скачан: торрент - 120 раз, раздача полностью - 52 раз
Размер: 4,06 GB
Оценка:  - (Голосов: 0)
Поблагодарили: 0
Поделиться ссылкой на эту раздачу с друзьями:
В контактеFacebookОдноклассникиTwitterLivejournalМой МирLiveinternet
 

 
Показать сообщения:    


Вы не можете начинать темы
Вы не можете отвечать на сообщения
Вы не можете редактировать свои сообщения
Вы не можете удалять свои сообщения
Вы не можете голосовать в опросах
Вы не можете прикреплять файлы к сообщениям
Вы можете скачивать файлы