Loading...
Error

Скачать Реквием для голоса и фортепиано / Requiem per voce e pianoforte (2 серии) (Томазо Шерман / Tomaso Sherman) [1991,Триллер, Детектив, VHSRip] [DVO] торрент без регистрации

 
Статистика раздачи
Размер:  2,5 GB   |    Скачан:  123 раза
Сидов:  1  [  0 KB/s  ]  
 
Автор Сообщение

leon030982

[] 

Реквием для голоса и фортепиано / Requiem per voce e pianoforte (2 серии)

Год выпуска: 1991
Страна: Италия
Жанр: Триллер, Детектив
Продолжительность: 01:33:18 + 01:26:12
Перевод: Профессиональный (двухголосый закадровый)
Cубтитры: нет

Режиссер: Томазо Шерман / Tomaso Sherman

В ролях: Симона Кавалари /Simona Cavallari, Массимо Популицио /Massimo Popolizio, Лара Вендель /Lara Wendel, Нико Давениа /Nico Davenia, Тони Берторелли /Toni Bertorelli, Мемо Дини /Memo Dini

Описание: По книге Джеймса Хедли Чейза /James Hadley Chase "Что лучше денег?" ("Все дело в деньгах") / What's Better Than Money.
Андрэа, штатный пианист ночного клуба, влюбляется в Риму - девицу с весьма тёмным прошлым. Пытаясь ей помочь, он соглашается на ограбление, в результате которого Рима убивает охранника и исчезает. По ходу расследования подозрение падает на мужчину, внешне похожего на Андрэа и он вынужден покинуть город. Вернувшись через много лет женатым профессиональным музыкантом, ему придётся снова встретиться с Римой... (Vonavi)
Двухсерийный телефильм, входящий в состав итальянской антологии - "Чейз-серии" (, "Смерть по контракту", "Перемените обстановку" и "Реквием для голоса и фортепиано")



Релиз
Рип: Ivanov (Vonavi)
Качество видео: VHSRip
Формат видео: AVI
Видео: 640x480 (1.33:1), 25 fps, XviD MPEG-4 ~1794 kbps avg, 0.23 bit/pixel
Аудио: 48 kHz, AC3 Dolby Digital, 2/0 (L,R) ch, 192.00 kbps avg
Полное имя : D:\Rekviem.dlya.golosa.i.fortepiano.1991.2iz2\Rekviem.dlya.golosa.i.fortepiano.1991.1iz2.VHSRip.XviD.Rus.avi
Формат : AVI
Формат/Информация : Audio Video Interleave
Размер файла : 1,30 Гбайт
Продолжительность : 1 ч. 33 м.
Общий поток : 1997 Кбит/сек
Программа кодирования : VirtualDubMod 1.5.10.1 (build 2366/release)
Библиотека кодирования : VirtualDubMod build 2366/release
Видео
Идентификатор : 0
Формат : MPEG-4 Visual
Профиль формата : Advanced Simple@L5
Параметр BVOP формата : 2
Параметр QPel формата : Нет
Параметр GMC формата : Без точки перехода
Параметр матрицы формата : Default (H.263)
Режим смешивания : Сжатый битовый поток
Идентификатор кодека : XVID
Идентификатор кодека/Подсказка : XviD
Продолжительность : 1 ч. 33 м.
Битрейт : 1795 Кбит/сек
Ширина : 640 пикс.
Высота : 480 пикс.
Соотношение сторон : 4:3
Частота кадров : 25,000 кадр/сек
Цветовое пространство : YUV
Подвыборка цветности : 4:2:0
Битовая глубина : 8 бит
Тип развёртки : Прогрессивная
Метод сжатия : С потерями
Бит/(Пиксели*Кадры) : 0.234
Размер потока : 1,17 Гбайт (90%)
Библиотека кодирования : XviD 64
Аудио
Идентификатор : 1
Формат : AC-3
Формат/Информация : Audio Coding 3
Расширение режима : CM (complete main)
Идентификатор кодека : 2000
Продолжительность : 1 ч. 33 м.
Вид битрейта : Постоянный
Битрейт : 192 Кбит/сек
Канал(ы) : 2 канала(ов)
Расположение каналов : Front: L R
Частота : 48,0 КГц
Битовая глубина : 16 бит
Метод сжатия : С потерями
Размер потока : 128 Мбайт (10%)
Выравнивание : Соединение по промежуткам
Продолжительность промежутка : 40 мс. (1,00 видеокадр)
Время предзагрузки промежутка : 512 ms
Общее
Полное имя : D:\Rekviem.dlya.golosa.i.fortepiano.1991.2iz2\Rekviem.dlya.golosa.i.fortepiano.1991.2iz2.VHSRip.XviD.Rus.avi
Формат : AVI
Формат/Информация : Audio Video Interleave
Размер файла : 1,20 Гбайт
Продолжительность : 1 ч. 26 м.
Общий поток : 1997 Кбит/сек
Программа кодирования : VirtualDubMod 1.5.10.1 (build 2366/release)
Библиотека кодирования : VirtualDubMod build 2366/release
Видео
Идентификатор : 0
Формат : MPEG-4 Visual
Профиль формата : Advanced Simple@L5
Параметр BVOP формата : 2
Параметр QPel формата : Нет
Параметр GMC формата : Без точки перехода
Параметр матрицы формата : Default (H.263)
Режим смешивания : Сжатый битовый поток
Идентификатор кодека : XVID
Идентификатор кодека/Подсказка : XviD
Продолжительность : 1 ч. 26 м.
Битрейт : 1795 Кбит/сек
Ширина : 640 пикс.
Высота : 480 пикс.
Соотношение сторон : 4:3
Частота кадров : 25,000 кадр/сек
Цветовое пространство : YUV
Подвыборка цветности : 4:2:0
Битовая глубина : 8 бит
Тип развёртки : Прогрессивная
Метод сжатия : С потерями
Бит/(Пиксели*Кадры) : 0.234
Размер потока : 1,08 Гбайт (90%)
Библиотека кодирования : XviD 64
Аудио
Идентификатор : 1
Формат : AC-3
Формат/Информация : Audio Coding 3
Расширение режима : CM (complete main)
Идентификатор кодека : 2000
Продолжительность : 1 ч. 26 м.
Вид битрейта : Постоянный
Битрейт : 192 Кбит/сек
Канал(ы) : 2 канала(ов)
Расположение каналов : Front: L R
Частота : 48,0 КГц
Битовая глубина : 16 бит
Метод сжатия : С потерями
Размер потока : 118 Мбайт (10%)
Выравнивание : Соединение по промежуткам
Продолжительность промежутка : 40 мс. (1,00 видеокадр)
Время предзагрузки промежутка : 512 ms
Из за особенности исходного материала, в рипе присутствует "гостинг", исправить который невозможно. Заметен он только в редакторе и на качество при воспроизведении плеером не влияет



Скачать Реквием.для.голоса.и.фортепиано.Requiem.per.voce.e.pianoforte.(2.серии).(Томазо.Шерман.Tomaso.Sherman).[1991.Триллер.Детектив.VHSRip].[DVO].torrent без регистрации
Золото ЗОЛОТАЯ РАЗДАЧА! СКАЧАННОЕ НЕ ЗАСЧИТЫВАЕТСЯ! Золото
Дата: Зарегистрирован   [ Тип: внутренний ] Как тут cкачать?
MAGNET ссылка
MAGNET ссылка


Скачать .torrent

13 KB

Статус: проверено DHT
Скачан: торрент - 123 раз, раздача полностью - 12 раз
Размер: 2,5 GB
Оценка:  - (Голосов: 0)
Поблагодарили: 1
Поделиться ссылкой на эту раздачу с друзьями:
В контактеFacebookОдноклассникиTwitterLivejournalМой МирLiveinternet
 

 
Показать сообщения:    


Вы не можете начинать темы
Вы не можете отвечать на сообщения
Вы не можете редактировать свои сообщения
Вы не можете удалять свои сообщения
Вы не можете голосовать в опросах
Вы не можете прикреплять файлы к сообщениям
Вы можете скачивать файлы