Loading...
Error

Скачать Неприятности с обезьянкой / Monkey trouble (Франко Амурри) [1994, комедия, семейный, DVDRip] [MVO] торрент без регистрации

 
Статистика раздачи
Размер:  745 MB   |    Скачан:  115 раз
Сидов:  1  [  0 KB/s  ]  
 
Автор Сообщение

leon030982

[] 

Неприятности с обезьянкой / Monkey trouble

Год выпуска: 1994
Страна: США, Япония
Жанр: комедия, семейный
Продолжительность: 01:36:08

Перевод: Профессиональный (многоголосый закадровый)
Субтитры: нет
Оригинальная дорожка: нет

Режиссер: Франко Амурри / Franco Amurri

В ролях: Тора Берч / Thora Birch, Мими Роджерс / Mimi Rogers, Кристофер МакДоналд / Christopher McDonald, Харви Кайтел / Harvey Keitel, Виктор Арго / Victor Argo, Роберт Миранда / Robert Miranda, Кевин Скэннелл / Kevin Scannell

Описание: Мелкий мошенник Азро выдрессировал мартышку воровать деньги и ценности. От него уходит жена, и, напившись, Азро избивает мартышку. Мартышка убегает к девятилетней девочке Еве, квартиру которой она ограбила.
Девочка отучает мартышку от «криминального творчества». Азро, нанятый мафией для крупной аферы и уже получивший крупный аванс, был просто в шоке от такого исправления.


Исходник: DVD5
Качество: DVDRip
Формат: AVI

Видео: 640x352 (16:9), 23.976 fps, XviD MPEG-4 ~ 946 kbps avg, 0.175 bit/pixel
Аудио: Русский: 48 kHz, Dolby MP3, 2 ch, 128.00 kbps Constant

Раздача от:

Общее
Полное имя : Nepriyatnosti.s.obezyankoi.1994.P.DVDRip745_[Youtracker]_by_AVP Studio.avi
Формат : AVI
Формат/Информация : Audio Video Interleave
Размер файла : 745 Мбайт
Продолжительность : 1 ч. 36 м.
Общий поток : 1083 Кбит/сек
Программа кодирования : VirtualDubModRus 1.5.10.2 (build 2542/release)
Библиотека кодирования : VirtualDubMod build 2542/release

Видео
Идентификатор : 0
Формат : MPEG-4 Visual
Профиль формата : Advanced Simple@L5
Параметр BVOP формата : 1
Параметр QPel формата : Нет
Параметр GMC формата : Без точки перехода
Параметр матрицы формата : Выборочная
Идентификатор кодека : XVID
Идентификатор кодека/Подсказка : XviD
Продолжительность : 1 ч. 36 м.
Битрейт : 946 Кбит/сек
Ширина : 640 пикселей
Высота : 352 пикселя
Соотношение сторон : 16:9
Частота кадров : 23,976 кадра/сек
Цветовое пространство : YUV
Субдискретизация насыщенности : 4:2:0
Битовая глубина : 8 бит
Тип развёртки : Прогрессивная
Метод сжатия : С потерями
Бит/(Пиксели*Кадры) : 0.175
Размер потока : 650 Мбайт (87%)
Библиотека кодирования : XviD 65

Аудио
Идентификатор : 1
Формат : MPEG Audio
Версия формата : Version 1
Профиль формата : Layer 3
Режим : Joint stereo
Расширение режима : MS Stereo
Идентификатор кодека : 55
Идентификатор кодека/Подсказка : MP3
Продолжительность : 1 ч. 36 м.
Вид битрейта : Постоянный
Битрейт : 128 Кбит/сек
Каналы : 2 канала
Частота : 48,0 КГц
Метод сжатия : С потерями
Размер потока : 88,0 Мбайт (12%)
Выравнивание : Соединение по промежуткам
Продолжительность промежутка : 42 мс. (1,00 видеокадр)
Время предзагрузки промежутка : 504 мс.
Библиотека кодирования : LAME3.99 (alpha)



Скачать Неприятности.с.обезьянкой.Monkey.trouble.(Франко.Амурри).[1994.комедия.семейный.DVDRip].[MVO].torrent без регистрации
Золото ЗОЛОТАЯ РАЗДАЧА! СКАЧАННОЕ НЕ ЗАСЧИТЫВАЕТСЯ! Золото
Дата: Зарегистрирован   [ Тип: внутренний ] Как тут cкачать?
MAGNET ссылка
MAGNET ссылка


Скачать .torrent

15 KB

Статус: проверено DHT
Скачан: торрент - 115 раз, раздача полностью - 4 раз
Размер: 745 MB
Оценка:  - (Голосов: 0)
Поблагодарили: 1
Поделиться ссылкой на эту раздачу с друзьями:
В контактеFacebookОдноклассникиTwitterLivejournalМой МирLiveinternet
 

 
Показать сообщения:    


Вы не можете начинать темы
Вы не можете отвечать на сообщения
Вы не можете редактировать свои сообщения
Вы не можете удалять свои сообщения
Вы не можете голосовать в опросах
Вы не можете прикреплять файлы к сообщениям
Вы можете скачивать файлы